Loading...
Error

Скачать Ночь живых мертвецов / Night of the Living Dead (Том Савини) [1990, Ужасы, DVDRip-AVC] [AVO] (Живов) + [VO] (JB) + [Original] + [Sub] (Rus, Eng) торрент без регистрации

 
Статистика раздачи
Размер:  1,46 GB   |    Скачан:  135 раз
Сидов:  1  [  0 KB/s  ]  
 
Автор Сообщение

leon030982

[] 

Ночь живых мертвецов / Night of the Living Dead
«There IS a fate worse than death.»
Страна: США
Жанр: Ужасы
Год выпуска: 1990
Продолжительность: 01:28:16
Перевод 1: Авторский (одноголосый закадровый) Юрий Живов
Перевод 2: Одноголосый закадровый Jakob Bellmann
Cубтитры: Русские, английские
Оригинальная аудиодорожка: Английский
Режиссёр: Том Савини / Tom Savini
В ролях:
Тони Тодд - Бен
Патриция Таллман - Барбара
Том Таулз - Гарри Купер
МакКи Андерсон - Элен Купер
Уильям Батлер - Том
Кэти Финнеран - Джуди Роуз
Билл Моусли - Джонни
Хезер Мазур - Сара Купер
Описание:
Брат и сестра приезжают навестить могилу своей матушки на кладбище в окрестностях Питтсбурга. Брат пугает сестру рассказами о зомби, не подозревая о том, что он весьма недалёк от реальности. Внезапно на них набрасывается один из покойников; брата убивают, а Барбара убегает, обнаруживая по дороге фермерский дом. Через какое-то время к нему подъезжает Бен, в бензобаке машины которого кончился бензин. Они решают остаться в доме и готовиться к обороне. Позже выясняется, что в подвале дома прячутся ещё несколько человек. Все вместе они должны забаррикадироваться и переждать страшную ночь - ведь зомби не станут сидеть на крыльце и ждать, пока люди выйдут сами - они будут пытаться прорваться внутрь - желание отведать человеческого мяса в них безумно сильно.

Кассовые сборы:
Премьера фильма состоялась 19 октября 1990 года. В США фильм собрал 5835247$, из них в первый уик-энд проката - 2884679$.



Сохранены оригинальные главы, как на DVD.
Качество видео: DVDRip-AVC
Формат видео: MKV
Видео: H.264, 706x464@836x464, 23.976fps, 1783kbps
Аудио 1: AC3, 48kHz, 2.0ch, 192kbps, AVO Живов
Аудио 2: AC3, 48kHz, 2.0ch, 192kbps, VO JB
Аудио 3: AC3, 48kHz, 2.0ch, 192kbps, Original
Формат субтитров: softsub (SRT)
General
Unique ID : 222084912422518628312485007752370516872 (0xA713FF90CAFC76DBB5137B3B81BAF388)
Complete name : D:\Films\1990 - Night of the Living Dead.mkv
Format : Matroska
Format version : Version 2
File size : 1.46 GiB
Duration : 1h 28mn
Overall bit rate : 2 362 Kbps
Encoded date : UTC 2012-04-22 10:58:34
Writing application : mkvmerge v5.2.1 ('A Far Off Place') built on Jan 2 2012 23:21:10
Writing library : libebml v1.2.3 + libmatroska v1.3.0
Video
ID : 1
Format : AVC
Format/Info : Advanced Video Codec
Format profile : High@L4.1
Format settings, CABAC : Yes
Format settings, ReFrames : 16 frames
Codec ID : V_MPEG4/ISO/AVC
Duration : 1h 28mn
Bit rate : 1 783 Kbps
Width : 706 pixels
Height : 464 pixels
Display aspect ratio : 16:9
Original display aspect ratio : 16:9
Frame rate : 23.976 fps
Color space : YUV
Chroma subsampling : 4:2:0
Bit depth : 8 bits
Scan type : Progressive
Bits/(Pixel*Frame) : 0.227
Stream size : 1.07 GiB (74%)
Title : H.264, 706x464@836x464, 23.976fps, 1783kbps
Writing library : x264 core 120 r2164 da19765
Encoding settings : cabac=1 / ref=16 / deblock=1:-1:-1 / analyse=0x3:0x133 / me=umh / subme=10 / psy=1 / psy_rd=1.00:0.15 / mixed_ref=1 / me_range=24 / chroma_me=1 / trellis=2 / 8x8dct=1 / cqm=0 / deadzone=21,11 / fast_pskip=1 / chroma_qp_offset=-3 / threads=12 / sliced_threads=0 / nr=0 / decimate=1 / interlaced=0 / bluray_compat=0 / constrained_intra=0 / bframes=8 / b_pyramid=0 / b_adapt=2 / b_bias=0 / direct=3 / weightb=1 / open_gop=0 / weightp=2 / keyint=240 / keyint_min=23 / scenecut=40 / intra_refresh=0 / rc_lookahead=60 / rc=2pass / mbtree=1 / bitrate=1783 / ratetol=1.0 / qcomp=0.60 / qpmin=10 / qpmax=51 / qpstep=4 / cplxblur=20.0 / qblur=0.5 / vbv_maxrate=17500 / vbv_bufsize=14000 / nal_hrd=none / ip_ratio=1.40 / aq=1:1.00
Default : Yes
Forced : No
Audio #1
ID : 2
Format : AC-3
Format/Info : Audio Coding 3
Mode extension : CM (complete main)
Codec ID : A_AC3
Duration : 1h 28mn
Bit rate mode : Constant
Bit rate : 192 Kbps
Channel(s) : 2 channels
Channel positions : Front: L R
Sampling rate : 48.0 KHz
Bit depth : 16 bits
Compression mode : Lossy
Stream size : 121 MiB (8%)
Title : AC3, 48kHz, 2ch, 192kbps, AVO - Юрий Живов
Language : Russian
Default : Yes
Forced : No
Audio #2
ID : 3
Format : AC-3
Format/Info : Audio Coding 3
Mode extension : CM (complete main)
Codec ID : A_AC3
Duration : 1h 28mn
Bit rate mode : Constant
Bit rate : 192 Kbps
Channel(s) : 2 channels
Channel positions : Front: L R
Sampling rate : 48.0 KHz
Bit depth : 16 bits
Compression mode : Lossy
Stream size : 121 MiB (8%)
Title : AC3, 48kHz, 2ch, 192kbps, VO - Jakob Bellmann
Language : Russian
Default : No
Forced : No
Audio #3
ID : 4
Format : AC-3
Format/Info : Audio Coding 3
Mode extension : CM (complete main)
Codec ID : A_AC3
Duration : 1h 28mn
Bit rate mode : Constant
Bit rate : 192 Kbps
Channel(s) : 2 channels
Channel positions : Front: L R
Sampling rate : 48.0 KHz
Bit depth : 16 bits
Compression mode : Lossy
Stream size : 121 MiB (8%)
Title : AC3, 48kHz, 2ch, 192kbps, Original
Language : English
Default : No
Forced : No
Text #1
ID : 5
Format : UTF-8
Codec ID : S_TEXT/UTF8
Codec ID/Info : UTF-8 Plain Text
Title : Full
Language : Russian
Default : No
Forced : No
Text #2
ID : 6
Format : UTF-8
Codec ID : S_TEXT/UTF8
Codec ID/Info : UTF-8 Plain Text
Title : Full
Language : English
Default : No
Forced : No
Menu
00:00:00.000 : :Chapter 01
00:03:10.634 : :Chapter 02
00:08:25.368 : :Chapter 03
00:11:11.868 : :Chapter 04
00:16:42.868 : :Chapter 05
00:18:05.868 : :Chapter 06
00:20:02.368 : :Chapter 07
00:22:54.368 : :Chapter 08
00:25:21.368 : :Chapter 09
00:27:48.501 : :Chapter 10
00:35:06.001 : :Chapter 11
00:37:05.001 : :Chapter 12
00:42:42.635 : :Chapter 13
00:44:03.035 : :Chapter 14
00:46:59.535 : :Chapter 15
00:49:30.535 : :Chapter 16
00:51:53.035 : :Chapter 17
00:54:35.168 : :Chapter 18
00:57:27.735 : :Chapter 19
01:00:03.735 : :Chapter 20
01:04:02.369 : :Chapter 21
01:06:09.270 : :Chapter 22
01:06:48.770 : :Chapter 23
01:09:06.270 : :Chapter 24
01:16:05.770 : :Chapter 25
01:19:44.270 : :Chapter 26
01:22:02.770 : :Chapter 27
01:22:55.770 : :Chapter 28
x264 [info]: frame I:967 Avg QP:16.93 size: 39759
x264 [info]: frame P:47229 Avg QP:17.83 size: 16915
x264 [info]: frame B:78788 Avg QP:21.56 size: 4358



Скачать Ночь.живых.мертвецов.Night.of.the.Living.Dead.(Том.Савини).[1990.Ужасы.DVDRip-AVC].[AVO].(Живов).+.[VO].(JB).+.[Original].+.[Sub].(Rus.Eng).torrent без регистрации
Золото ЗОЛОТАЯ РАЗДАЧА! СКАЧАННОЕ НЕ ЗАСЧИТЫВАЕТСЯ! Золото
Дата: Зарегистрирован   [ Тип: внутренний ] Как тут cкачать?
MAGNET ссылка
MAGNET ссылка


Скачать .torrent

15 KB

Статус: проверено DHT
Скачан: торрент - 135 раз, раздача полностью - 4 раз
Размер: 1,46 GB
Оценка:  - (Голосов: 0)
Поблагодарили: 0
Поделиться ссылкой на эту раздачу с друзьями:
В контактеFacebookОдноклассникиTwitterLivejournalМой МирLiveinternet
 

 
Показать сообщения:    


Вы не можете начинать темы
Вы не можете отвечать на сообщения
Вы не можете редактировать свои сообщения
Вы не можете удалять свои сообщения
Вы не можете голосовать в опросах
Вы не можете прикреплять файлы к сообщениям
Вы можете скачивать файлы