Loading...
Error

Скачать Подъём с глубины / Deep rising (Стивен Соммерс / Stephen Sommers) [1998, Фантастика, Боевик, Ужасы, HDTVRip] [AVO Гаврилов] торрент без регистрации

 
Статистика раздачи
Размер:  1,46 GB   |    Скачан:  184 раза
Сидов:  1  [  0 KB/s  ]  
 
Автор Сообщение

Marsianka

[] 


Подъём с глубины / Deep rising


Год выпуска: 1998
Выпущено: США
Жанр: Фантастика, Боевик, Ужасы
Продолжительность: 01:45:52
Перевод: Авторский (одноголосый закадровый) А.Гаврилов
Субтитры: нет

Режиссер: Стивен Соммерс / Stephen Sommers

В ролях: Трит Уильямс, Фамке Янссен, Энтони Хилд, Кевин Дж. О’Коннор,Уэс Студи, Деррик О’Коннор, Джейсон Флеминг, Клифф Кёртис, Клифтон Пауэлл, Тревор Годдар

Описание: Банда наемников отправляется на перехват океанского пассажирского лайнера с целью захвата драгоценностей и денег. Вооруженные до зубов, они рассчитывают на успех этой тщательно спланированной операции... Но боевая уверенность захватчиков сменяется ужасом перед небывалыми чудовищами, устроившими пир на корабле! У этих монстров здесь не было противников! И кровь тысяч людей не смогла утолить их жажду!




File: Pod'em s glubini.chopper887.avi
Title: Pod'em s glubini.chopper887
Author: chopper887
Filesize: 1491.79 Mb ( 1 564 260 352 bytes )
Play length: 01:45:52.647 (152311 frames)
Subtitles: Not Present
Video: 720x400 (1.80:1), 23.976 fps, XviD build 50 ~1576 kbps avg, 0.23 bit/pixel
Audio: 48 kHz, AC3 Dolby Digital, 3/2 (L,C,R,l,r) + LFE ch, ~384 kbps
<br /> File: Pod'em s glubini.chopper887.avi<br /> Title: Pod'em s glubini.chopper887<br /> Author: chopper887<br /> Filesize: 1491.79 Mb ( 1 564 260 352 bytes )<br /> Play length: 01:45:52.647 (152311 frames)<br /> Subtitles: Not Present<br /> Video: 720x400 (1.80:1), 23.976 fps, XviD build 50 ~1576 kbps avg, 0.23 bit/pixel<br /> Audio: 48 kHz, AC3 Dolby Digital, 3/2 (L,C,R,l,r) + LFE ch, ~384 kbps<br />
General
Complete name : D:Pod'em s glubini.chopper887.avi
Format : AVI
Format/Info : Audio Video Interleave
File size : 1.46 GiB
Duration : 1h 45mn
Overall bit rate : 1 970 Kbps
Movie name : Pod'em s glubini.chopper887
Director : chopper887
Writing application : VirtualDubMod 1.5.10.2 (build 2540/release)

Video
ID : 0
Format : MPEG-4 Visual
Format profile : Advanced Simple@L5
Format settings, BVOP : Yes
Format settings, QPel : No
Format settings, GMC : No warppoints
Format settings, Matrix : Custom
Codec ID : XVID
Codec ID/Hint : XviD
Duration : 1h 45mn
Bit rate : 1 577 Kbps
Width : 720 pixels
Height : 400 pixels
Display aspect ratio : 16:9
Frame rate : 23.976 fps
Color space : YUV
Chroma subsampling : 4:2:0
Bit depth : 8 bits
Scan type : Progressive
Compression mode : Lossy
Bits/(Pixel*Frame) : 0.228
Stream size : 1.17 GiB (80%)
Writing library : XviD 1.2.1 (UTC 2008-12-04)

Audio
ID : 1
Format : AC-3
Format/Info : Audio Coding 3
Mode extension : CM (complete main)
Codec ID : 2000
Duration : 1h 45mn
Bit rate mode : Constant
Bit rate : 384 Kbps
Channel(s) : 6 channels
Channel positions : Front: L C R, Side: L R, LFE
Sampling rate : 48.0 KHz
Bit depth : 16 bits
Compression mode : Lossy
Stream size : 291 MiB (19%)
Alignment : Split accross interleaves
Interleave, duration : 42 ms (1.00 video frame)
Interleave, preload duration : 500 ms


Качество: HDTVRip(Исходник HDTVRip720)
Формат: AVI
Видео: 720x400 (1.80:1), 23.976 fps, XviD build 50 ~1576 kbps avg, 0.23 bit/pixel
Аудио: 48 kHz, AC3 Dolby Digital, 3/2 (L,C,R,l,r) + LFE ch, ~384 kbps






Скачать Подъём.с.глубины.Deep.rising.(Стивен.Соммерс.Stephen.Sommers).[1998.Фантастика.Боевик.Ужасы.HDTVRip].[AVO.Гаврилов].torrent без регистрации
Золото ЗОЛОТАЯ РАЗДАЧА! СКАЧАННОЕ НЕ ЗАСЧИТЫВАЕТСЯ! Золото
Дата: Зарегистрирован   [ Тип: внутренний ] Как тут cкачать?
MAGNET ссылка
MAGNET ссылка


Скачать .torrent

15 KB

Статус: проверено DHT
Скачан: торрент - 184 раз, раздача полностью - 50 раз
Размер: 1,46 GB
Оценка:  5 (Голосов: 1)
Поблагодарили: 2
Поделиться ссылкой на эту раздачу с друзьями:
В контактеFacebookОдноклассникиTwitterLivejournalМой МирLiveinternet
 

 
Показать сообщения:    


Вы не можете начинать темы
Вы не можете отвечать на сообщения
Вы не можете редактировать свои сообщения
Вы не можете удалять свои сообщения
Вы не можете голосовать в опросах
Вы не можете прикреплять файлы к сообщениям
Вы можете скачивать файлы