Loading...
Error

Скачать Ракетчик / The Rocketeer (Джо Джонстон) [1991г., фантастика, боевик, приключения, семейный, HDRip] [MVO] (Видеосервис) + 2x[AVO] (А.Марченко, А.Гаврилов) + [ENG] торрент без регистрации

 
Статистика раздачи
Размер:  2,34 GB   |    Скачан:  127 раз
Сидов:  1  [  0 KB/s  ]  
 
Автор Сообщение

leon030982

[] 

Ракетчик / The Rocketeer


Страна: США
Жанр: фантастика, боевик, приключения, семейный
Год выпуска: 1991
Продолжительность: 01:48:28
Перевод: Профессиональный (многолосый закадровый) | «Видеосервис»
Авторский (А.Марченко + А.Гаврилов)
Cубтитры: нет
Режиссер: Джо Джонстон / Joe Johnston
В ролях: Билл Кэмпбелл, Дженнифер Коннелли, Алан Аркин, Тимоти Далтон, Пол Сорвино, Терри О`Куинн, Эд Лотер, Джеймс Хэнди, Тайни Рон, Роберт Миранда, Джон Полито, Клинт Ховард

Описание: Америка тридцатых годов, золотое время! Гангстеры, нацистские шпионы и допотопные аэропланы, заполнившие небо. Молодой пилот Клифф Сэкорд находит сверхсекретное устройство — ракетный ранец, позволяющий подниматься в воздух. Вскоре в газетах появляются сообщения о таинственном человеке, парящем в небе словно ракета.
Журналисты дают ему громкое прозвище «Ракетчик». По его следу пускаются буквально все: репортеры, агенты ФБР и фашисты, больше других заинтересованные в совершенном оружии. В облаках снова мелькнула стремительная тень. Мертвая петля вокруг его шеи затягивается все туже.
Дополнительно: * Озвучка («чистые голоса») Видеосервиса выкуплена в рамках сервиса «Озвучивание». Спонсоры: Loki1982, psycho, Кириллка
* Дорожки №1,2 получены наложением чистого голоса на центр декодированного DTS-HD MA
Качество видео: HDRip [BDRip 1080p HDCLUB]
Формат видео: AVI
Видео: 720x304 (2,35:1), 23,976 кадр/сек, 1525 Кбит/сек, 0.291 bit/pixel
Аудио 1: AC-3, 448 Кбит/сек, 6 каналов, 48,0 КГц | Видеосервис
Аудио 2: AC-3, 448 Кбит/сек, 6 каналов, 48,0 КГц | А.Марченко
Аудио 3: AC-3, 448 Кбит/сек, 6 каналов, 48,0 КГц | Englisg
Аудио 4: AC-3, 192 Кбит/сек, 2каналa, 48,0 КГц | А.Гаврилов (Отдельно)




Код:

Общее
Полное имя                       : E:\ФИЛЬМЫ\The.Rocketeer.1991.HDRip.andre90\The.Rocketeer.1991.HDRip.andre90.avi
Формат                           : AVI
Формат/Информация                : Audio Video Interleave
Профиль формата                  : OpenDML
Размер файла                     : 2,19 Гбайт
Продолжительность                : 1 ч. 48 м.
Общий поток                      : 2892 Кбит/сек
Программа кодирования            : VirtualDubMod 1.5.10.2 (build 2540/release)
Библиотека кодирования           : VirtualDubMod build 2540/release
Видео
Идентификатор                    : 0
Формат                           : MPEG-4 Visual
Профиль формата                  : Advanced Simple@L5
Параметр BVOP формата            : 1
Параметр QPel формата            : Нет
Параметр GMC формата             : Без точки перехода
Параметр матрицы формата         : Выборочная
Идентификатор кодека             : XVID
Идентификатор кодека/Подсказка   : XviD
Продолжительность                : 1 ч. 48 м.
Битрейт                          : 1525 Кбит/сек
Ширина                           : 720 пикселей
Высота                           : 304 пикселя
Соотношение сторон               : 2,35:1
Частота кадров                   : 23,976 кадра/сек
Цветовое пространство            : YUV
Субдискретизация насыщенности    : 4:2:0
Битовая глубина                  : 8 бит
Тип развёртки                    : Прогрессивная
Метод сжатия                     : С потерями
Бит/(Пиксели*Кадры)              : 0.291
Размер потока                    : 1,16 Гбайт (53%)
Библиотека кодирования           : XviD 1.2.1 (UTC 2008-12-04)
Аудио #1
Идентификатор                    : 1
Формат                           : AC-3
Формат/Информация                : Audio Coding 3
Расширение режима                : CM (complete main)
Идентификатор кодека             : 2000
Продолжительность                : 1 ч. 48 м.
Вид битрейта                     : Постоянный
Битрейт                          : 448 Кбит/сек
Каналы                           : 6 каналов
Расположение каналов             : Front: L C R, Side: L R, LFE
Частота                          : 48,0 КГц
Битовая глубина                  : 16 бит
Метод сжатия                     : С потерями
Размер потока                    : 348 Мбайт (15%)
Выравнивание                     : Соединение по промежуткам
Продолжительность промежутка     : 42  мс. (1,00 видеокадр)
Время предзагрузки промежутка    : 512  мс.
Заголовок                        : Видеосервис
Аудио #2
Идентификатор                    : 2
Формат                           : AC-3
Формат/Информация                : Audio Coding 3
Расширение режима                : CM (complete main)
Идентификатор кодека             : 2000
Продолжительность                : 1 ч. 48 м.
Вид битрейта                     : Постоянный
Битрейт                          : 448 Кбит/сек
Каналы                           : 6 каналов
Расположение каналов             : Front: L C R, Side: L R, LFE
Частота                          : 48,0 КГц
Битовая глубина                  : 16 бит
Метод сжатия                     : С потерями
Размер потока                    : 348 Мбайт (15%)
Выравнивание                     : Разделение по промежуткам
Продолжительность промежутка     : 42  мс. (1,00 видеокадр)
Время предзагрузки промежутка    : 500  мс.
Заголовок                        : А.Марченко
Аудио #3
Идентификатор                    : 3
Формат                           : AC-3
Формат/Информация                : Audio Coding 3
Расширение режима                : CM (complete main)
Идентификатор кодека             : 2000
Продолжительность                : 1 ч. 48 м.
Вид битрейта                     : Постоянный
Битрейт                          : 448 Кбит/сек
Каналы                           : 6 каналов
Расположение каналов             : Front: L C R, Side: L R, LFE
Частота                          : 48,0 КГц
Битовая глубина                  : 16 бит
Метод сжатия                     : С потерями
Размер потока                    : 348 Мбайт (15%)
Выравнивание                     : Разделение по промежуткам
Продолжительность промежутка     : 42  мс. (1,00 видеокадр)
Время предзагрузки промежутка    : 500  мс.
Заголовок                        : English



Скачать Ракетчик.The.Rocketeer.(Джо.Джонстон).[1991г.фантастика.боевик.приключения.семейный.HDRip].[MVO].(Видеосервис).+.2x[AVO].(А.Марченко.А.Гаврилов).+.[ENG].torrent без регистрации
Золото ЗОЛОТАЯ РАЗДАЧА! СКАЧАННОЕ НЕ ЗАСЧИТЫВАЕТСЯ! Золото
Дата: Зарегистрирован   [ Тип: внутренний ] Как тут cкачать?
MAGNET ссылка
MAGNET ссылка


Скачать .torrent

12 KB

Статус: проверено DHT
Скачан: торрент - 127 раз, раздача полностью - 0 раз
Размер: 2,34 GB
Оценка:  - (Голосов: 0)
Поблагодарили: 0
Поделиться ссылкой на эту раздачу с друзьями:
В контактеFacebookОдноклассникиTwitterLivejournalМой МирLiveinternet
 

 
Показать сообщения:    


Вы не можете начинать темы
Вы не можете отвечать на сообщения
Вы не можете редактировать свои сообщения
Вы не можете удалять свои сообщения
Вы не можете голосовать в опросах
Вы не можете прикреплять файлы к сообщениям
Вы можете скачивать файлы