Loading...
Error

Скачать Призрачный гонщик / Ghost Rider (Марк Стивен Джонсон) [2007, фэнтези, боевик, триллер, BDRip-AVC] [Dub]+[MVO] торрент без регистрации

 
Статистика раздачи
Размер:  2,74 GB   |    Скачан:  184 раза
Сидов:  1  [  0 KB/s  ]  
 
Автор Сообщение

Marsianka

[] 

Призрачный гонщик / Ghost Rider (2007) BDRip-AVC

Информация о фильме
Название: Призрачный гонщик
Оригинальное название: Ghost Rider
Год выхода: 2007
Слоган: «Когда-то он заключил сделку во имя любви»
Жанр: фэнтези, боевик, триллер
Режиссер: Марк Стивен Джонсон
В ролях: Николас Кейдж, Ева Мендес, Уэс Бентли, Питер Фонда, Сэм Эллиотт, Мэтт Лонг, Ракель Алесси, Бретт Каллен, Донал Лог, Тони Гоустхок

Описание: Чтобы спасти своего отца от верной гибели, байкер-экстремал Джонни Блэйз заключает сделку с дьяволом, объектом которой является его бессмертная душа. Проходят годы, и дьявол предъявляет свои права по контракту. Он превращает Джонни в Призрачного Гонщика, агента потусторонних сил, обладающего сверхчеловеческими способностями.



Страна: США, Австралия
Студия: Columbia Pictures
Время: 02:03:25
Перевод: Профессиональный (дублированный + многоголосый, закадровый на режиссерские вставки)

Файл
Кодек: x264
Качество: BDRip-AVC
Видео: 1024x424, 23.976 fps, 2025 kbps
Аудио #1: AC3, 6 ch, 384 kbps | Русский (дубляж)
Аудио #2: AC3, 6 ch, 384 kbps | Русский (многоголосый)
Аудио #3: AC3, 6 ch, 384 kbps | Английский (оригинал)
Субтитры: Английские
Общее
Уникальный идентификатор : 173890922384206776873654441446596263231 (0x82D22C67114B273FBC55F449F5ADBD3F)
Имя : Ghost.Rider.Extended.Cut.2007.BDRip-AVC.mkv
Формат : Matroska
Версия формата : Version 1
Размер файла : 2,74 Гбайт
Продолжительность : 2 ч. 3 м.
Общий поток : 3178 Кбит/сек

Видео
Идентификатор : 1
Формат : AVC
Формат/Информация : Advanced Video Codec
Профиль формата : High@L4.1
Параметр CABAC формата : Да
Параметр ReFrames формата : 7 кадров
Идентификатор кодека : V_MPEG4/ISO/AVC
Продолжительность : 2 ч. 3 м.
Битрейт : 2025 Кбит/сек
Ширина : 1024 пикселя
Высота : 424 пикселя
Соотношение сторон : 2,40:1
Частота кадров : 23,976 кадра/сек
Цветовое пространство : YUV
Субдискретизация насыщенности : 4:2:0
Битовая глубина : 8 бит
Тип развёртки : Прогрессивная
Бит/(Пиксели*Кадры) : 0.195
Размер потока : 1,69 Гбайт (62%)
Библиотека кодирования : x264 core 92 r1510 33d382a
Настройки программы : cabac=1 / ref=7 / deblock=1:-1:-1 / analyse=0x3:0x113 / me=umh / subme=9 / psy=1 / psy_rd=1.00:0.10 / mixed_ref=1 / me_range=24 / chroma_me=1 / trellis=2 / 8x8dct=1 / cqm=0 / deadzone=21,11 / fast_pskip=0 / chroma_qp_offset=-3 / threads=3 / sliced_threads=0 / nr=0 / decimate=1 / interlaced=0 / constrained_intra=0 / bframes=6 / b_pyramid=2 / b_adapt=2 / b_bias=0 / direct=3 / wpredb=0 / wpredp=0 / keyint=250 / keyint_min=25 / scenecut=40 / intra_refresh=0 / rc_lookahead=50 / rc=2pass / mbtree=1 / bitrate=2025 / ratetol=1.0 / qcomp=0.60 / qpmin=10 / qpmax=51 / qpstep=4 / cplxblur=20.0 / qblur=0.5 / ip_ratio=1.40 / aq=1:1.00

Аудио #1
Идентификатор : 2
Формат : AC-3
Формат/Информация : Audio Coding 3
Расширение режима : CM (complete main)
Идентификатор кодека : A_AC3
Продолжительность : 2 ч. 3 м.
Вид битрейта : Постоянный
Битрейт : 384 Кбит/сек
Каналы : 6 каналов
Расположение каналов : Front: L C R, Side: L R, LFE
Частота : 48,0 КГц
Битовая глубина : 16 бит
Метод сжатия : С потерями
Размер потока : 339 Мбайт (12%)
Заголовок : Dub
Язык : Russian

Аудио #2
Идентификатор : 3
Формат : AC-3
Формат/Информация : Audio Coding 3
Расширение режима : CM (complete main)
Идентификатор кодека : A_AC3
Продолжительность : 2 ч. 3 м.
Вид битрейта : Постоянный
Битрейт : 384 Кбит/сек
Каналы : 6 каналов
Расположение каналов : Front: L C R, Side: L R, LFE
Частота : 48,0 КГц
Битовая глубина : 16 бит
Метод сжатия : С потерями
Размер потока : 339 Мбайт (12%)
Заголовок : MVO
Язык : Russian

Аудио #3
Идентификатор : 4
Формат : AC-3
Формат/Информация : Audio Coding 3
Расширение режима : CM (complete main)
Идентификатор кодека : A_AC3
Продолжительность : 2 ч. 3 м.
Вид битрейта : Постоянный
Битрейт : 384 Кбит/сек
Каналы : 6 каналов
Расположение каналов : Front: L C R, Side: L R, LFE
Частота : 48,0 КГц
Битовая глубина : 16 бит
Метод сжатия : С потерями
Размер потока : 339 Мбайт (12%)
Язык : English

Текст
Идентификатор : 5
Формат : UTF-8
Идентификатор кодека : S_TEXT/UTF8
Идентификатор кодека/Информация : UTF-8 Plain Text
Язык : English
В свое время Джон Войт числился в проекте, но обстоятельства сложились так, что он из него выбыл.
На съемках Кейдж носил парик, на наложение которого ежедневно уходило около трех часов.
Чтобы создать рокочущий голос Призрачного гонщика, звукорежиссеры записали обычный голос Николаса Кейджа, обработали его и смешали с треском пламени, воем диких зверей, скрежетом цепей и прочими жуткими звуками. По уверениям режиссера, трейлеры ленты всего богатства этого звучания не передают, а вот в кинотеатральной многоканальной версии саундтрека голос звучит по-настоящему устрашающе.
Кейдж принял участие в написании сценария, но в титрах это не отражено.
У Николаса Кейджа должна была быть татуировка с Призрачным гонщиком, когда он играл Джонни Блэйза.
На мосту в Мельбурне собирались толпы прохожих, чтобы наблюдать за съемками картины на близлежащих территориях. За четыре дня съемок в этих местах, толпы людей становились настолько огромными, что это создавало настоящие трудности для проезда общественного транспорта.
Главную роль в фильме хотел исполнить Джонни Депп.
Череп Призрачного гонщика был создан на основе трехмерного рентгена черепа Николаса Кейджа.
Один из мостов Мельбурна, на котором проходили съемки картины, был еще не достроен. Студии пришлось платить деньги за то, чтобы дорожную разметку, фонари и прочие атрибуты шоссе, нанесли как можно быстрее для того, чтобы отснять ряд эпизодов. Но после съемок всю проделанную работу пришлось в итоге выполнять заново, но уже с соблюдением Австралийских правил безопасности и стандартов.
Огненный мотоцикл Джонни Блэйза это современная копия мотоцикла Питера Фонды из «Беспечного ездока&raquo.
Изначальная дата релиза проекта была намечена на лето 2006 года. Но постановщик Марк Стивен Джонсон попросил еще немного времени, чтобы закончить ряд экшен-сцен.



Скачать Призрачный.гонщик.Ghost.Rider.(Марк.Стивен.Джонсон).[2007.фэнтези.боевик.триллер.BDRip-AVC].[Dub]+[MVO].torrent без регистрации
Золото ЗОЛОТАЯ РАЗДАЧА! СКАЧАННОЕ НЕ ЗАСЧИТЫВАЕТСЯ! Золото
Дата: Зарегистрирован   [ Тип: внутренний ] Как тут cкачать?
MAGNET ссылка
MAGNET ссылка


Скачать .torrent

14 KB

Статус: проверено DHT
Скачан: торрент - 184 раз, раздача полностью - 188 раз
Размер: 2,74 GB
Оценка:  - (Голосов: 0)
Поблагодарили: 4
Поделиться ссылкой на эту раздачу с друзьями:
В контактеFacebookОдноклассникиTwitterLivejournalМой МирLiveinternet
 

 
Показать сообщения:    


Вы не можете начинать темы
Вы не можете отвечать на сообщения
Вы не можете редактировать свои сообщения
Вы не можете удалять свои сообщения
Вы не можете голосовать в опросах
Вы не можете прикреплять файлы к сообщениям
Вы можете скачивать файлы