Loading...
Error

Скачать Космический каторжник 762 / Convict 762 (Лука Берковичи / Luca Bercovici) [1999, фантастика, боевик, триллер, DVDRip] [VO] (Михаил Иванов) торрент без регистрации

 
Статистика раздачи
Размер:  1,33 GB   |    Скачан:  156 раз
Сидов:  1  [  0 KB/s  ]  
 
Автор Сообщение

leon030982

[] 

Космический каторжник 762 / Convict 762

«The more he kills the stronger he gets!»
Страна: США
Жанр: фантастика, боевик, триллер
Год выпуска: 1999
Продолжительность: 01:35:15
Перевод: Одноголосый закадровый(Михаила Иванов)
Cубтитры: нет
Режиссер: Лука Берковичи / Luca Bercovici
В ролях: Фрэнк Загарино, Шеннон Стерджес, Миколь Уайт, Тони Фере, Шаэ Д’Лин, Чарли Спрэдлинг, Мерл Кеннеди, Билли Драго
Описание: Команда космического корабля чудом избегает гибели в метеоритном дожде. Однако, корабль сильно поврежден и нуждается в дозаправке топливом. Капитан принимает решение о стыковке с космической колонией для опасных преступников. Уже на подлете к планете становится ясно, что что-то не так — колония не отвечает на сигналы с корабля. Но это еще не все, в стенах тюрьмы осталось в живых всего два человека, и каждый из них утверждает, что он — чудом выживший охранник колонии, а другой — не вообразимое зло, погубившее всех на планете…

Качество видео: DVDRip
Формат видео: AVI
Видео: Xvid, 688x336, 23.98 fps, 1769 kbps, 0.31 bit/pixel
Аудио: MPEG Audio Layer 3, 48 kHz, 224 kbps, 2/0 (L,R) ch
General
Complete name : Convict.762.1999.DVDRip.Xvid-Zombie.Lee.avi
Format : AVI
Format/Info : Audio Video Interleave
File size : 1.33 GiB
Duration : 1h 35mn
Overall bit rate : 2 003 Kbps
Writing application : FairUse Wizard
Writing library : VirtualDub build 33790/release
Video
ID : 0
Format : MPEG-4 Visual
Format profile : Advanced Simple@L5
Format settings, BVOP : 1
Format settings, QPel : No
Format settings, GMC : No warppoints
Format settings, Matrix : Default (MPEG)
Muxing mode : Packed bitstream
Codec ID : XVID
Codec ID/Hint : XviD
Duration : 1h 35mn
Bit rate : 1 769 Kbps
Width : 688 pixels
Height : 336 pixels
Display aspect ratio : 2.048
Frame rate : 23.976 fps
Color space : YUV
Chroma subsampling : 4:2:0
Bit depth : 8 bits
Scan type : Progressive
Compression mode : Lossy
Bits/(Pixel*Frame) : 0.319
Stream size : 1.18 GiB (88%)
Writing library : XviD 1.2.1 (UTC 2008-12-04)
Audio
ID : 1
Format : MPEG Audio
Format version : Version 1
Format profile : Layer 3
Mode : Joint stereo
Codec ID : 55
Codec ID/Hint : MP3
Duration : 1h 35mn
Bit rate mode : Constant
Bit rate : 224 Kbps
Channel(s) : 2 channels
Sampling rate : 48.0 KHz
Compression mode : Lossy
Stream size : 153 MiB (11%)
Alignment : Split accross interleaves
Interleave, duration : 42 ms (1.00 video frame)
Interleave, preload duration : 500 ms



Скачать Космический.каторжник.762.Convict.762.(Лука.Берковичи.Luca.Bercovici).[1999.фантастика.боевик.триллер.DVDRip].[VO].(Михаил.Иванов).torrent без регистрации
Золото ЗОЛОТАЯ РАЗДАЧА! СКАЧАННОЕ НЕ ЗАСЧИТЫВАЕТСЯ! Золото
Дата: Зарегистрирован   [ Тип: внутренний ] Как тут cкачать?
MAGNET ссылка
MAGNET ссылка


Скачать .torrent

14 KB

Статус: проверено DHT
Скачан: торрент - 156 раз, раздача полностью - 46 раз
Размер: 1,33 GB
Оценка:  5 (Голосов: 1)
Поблагодарили: 3
Поделиться ссылкой на эту раздачу с друзьями:
В контактеFacebookОдноклассникиTwitterLivejournalМой МирLiveinternet
 

 
Показать сообщения:    


Вы не можете начинать темы
Вы не можете отвечать на сообщения
Вы не можете редактировать свои сообщения
Вы не можете удалять свои сообщения
Вы не можете голосовать в опросах
Вы не можете прикреплять файлы к сообщениям
Вы можете скачивать файлы