Loading...
Error

Скачать Турецкий гамбит (Джаник Файзиев) [2005, детектив, DVDRip-AVC] торрент без регистрации

 
Статистика раздачи
Размер:  1,45 GB   |    Скачан:  237 раз

Полного источника не было: 4 месяца 24 дня

 
Автор Сообщение

Dr_Shmurge

[] 

Турецкий гамбит
Жанр: детектив
Год выпуска: 2005
Продолжительность: 02:04:21
Режиссёр: Джаник Файзиев

В ролях: Егор Бероев, Гоша Куценко, Марат Башаров, Владимир Ильин, Дмитрий Певцов, Алексей Гуськов, Андрей Краско, Леонид Куравлев, Валдис Пельш, Евгений Лазарев, Виктор Бычков, Ольга Красько, Александр Лыков

Описание: 1877 год, русско-турецкая война. Принимавший участие в военных действиях в качестве сербского волонтера титулярный советник Эраст Фандорин пробирается в главный штаб русского командования с важным секретным сообщением. Но в штабе находится предатель, опасный и коварный враг, проникший с заданием погубить русскую армию...

Семпл: http://multi-up.com/693797
Качество видео: DVDRip-AVC
Формат видео: MKV
Видео: 720x516@1020x516 (1.98:1), 25 fps, AVC (H.264) ~1449 kbps avg, 0.156 bit/pixel
Аудио: 48 kHz, AC3 2ch, ~224 kbps
Общее
Уникальный идентификатор : 224783638665097920251357278395438423250 (0xA91BC10AD1CE223DAC0343AE1D135CD2)
Полное имя : D:\КИНО\Турецкий гамбит.mkv
Формат : Matroska
Версия формата : Version 2
Размер файла : 1,45 Гбайт
Продолжительность : 2 ч. 4 м.
Общий поток : 1674 Кбит/сек
Дата кодирования : UTC 2012-04-27 03:56:20
Программа кодирования : mkvmerge v5.2.1 ('A Far Off Place') built on Jan 2 2012 23:21:10
Библиотека кодирования : libebml v1.2.3 + libmatroska v1.3.0
Видео
Идентификатор : 1
Формат : AVC
Формат/Информация : Advanced Video Codec
Профиль формата : High@L4.1
Параметр CABAC формата : Да
Параметр ReFrames формата : 16 кадров
Идентификатор кодека : V_MPEG4/ISO/AVC
Продолжительность : 2 ч. 4 м.
Битрейт : 1449 Кбит/сек
Ширина : 720 пикселей
Высота : 516 пикселей
Соотношение сторон : 1,981
Соотношение сторон в оригинале : 1,980
Частота кадров : 25,000 кадров/сек
Цветовое пространство : YUV
Субдискретизация насыщенности : 4:2:0
Битовая глубина : 8 бит
Тип развёртки : Прогрессивная
Бит/(Пиксели*Кадры) : 0.156
Размер потока : 1,23 Гбайт (85%)
Библиотека кодирования : x264 core 120 r2164 da19765
Настройки программы : cabac=1 / ref=16 / deblock=1:-2:-1 / analyse=0x3:0x133 / me=umh / subme=10 / psy=1 / psy_rd=1.00:0.10 / mixed_ref=1 / me_range=24 / chroma_me=1 / trellis=2 / 8x8dct=1 / cqm=0 / deadzone=21,11 / fast_pskip=1 / chroma_qp_offset=-3 / threads=3 / sliced_threads=0 / nr=0 / decimate=1 / interlaced=0 / bluray_compat=0 / constrained_intra=0 / bframes=8 / b_pyramid=0 / b_adapt=2 / b_bias=0 / direct=3 / weightb=1 / open_gop=0 / weightp=2 / keyint=250 / keyint_min=25 / scenecut=40 / intra_refresh=0 / rc_lookahead=60 / rc=2pass / mbtree=1 / bitrate=1449 / ratetol=1.0 / qcomp=0.60 / qpmin=10 / qpmax=51 / qpstep=4 / cplxblur=20.0 / qblur=0.5 / vbv_maxrate=50000 / vbv_bufsize=50000 / nal_hrd=none / ip_ratio=1.40 / aq=1:1.00
Default : Да
Forced : Нет
Аудио
Идентификатор : 2
Формат : AC-3
Формат/Информация : Audio Coding 3
Расширение режима : CM (complete main)
Идентификатор кодека : A_AC3
Продолжительность : 2 ч. 4 м.
Вид битрейта : Постоянный
Битрейт : 224 Кбит/сек
Каналы : 2 канала
Расположение каналов : Front: L R
Частота : 48,0 КГц
Битовая глубина : 16 бит
Метод сжатия : С потерями
Размер потока : 199 Мбайт (13%)
Default : Да
Forced : Нет



Скачать Турецкий.гамбит.(Джаник.Файзиев).[2005.детектив.DVDRip-AVC].torrent без регистрации
Золото ЗОЛОТАЯ РАЗДАЧА! СКАЧАННОЕ НЕ ЗАСЧИТЫВАЕТСЯ! Золото
Дата: Зарегистрирован   [ Тип: внутренний ] Как тут cкачать?
MAGNET ссылка
MAGNET ссылка


Скачать .torrent

15 KB

Статус: ? недооформлено
Скачан: торрент - 237 раз, раздача полностью - 48 раз
Размер: 1,45 GB
Оценка:  - (Голосов: 0)
Поблагодарили: 4
Поделиться ссылкой на эту раздачу с друзьями:
В контактеFacebookОдноклассникиTwitterLivejournalМой МирLiveinternet
 

 

МихаНЕзатор

[] 

Добавьте рейтинги.
 
Показать сообщения:    


Вы не можете начинать темы
Вы не можете отвечать на сообщения
Вы не можете редактировать свои сообщения
Вы не можете удалять свои сообщения
Вы не можете голосовать в опросах
Вы не можете прикреплять файлы к сообщениям
Вы можете скачивать файлы