Loading...
Error

Скачать 12 разгневанных мужчин / 12 Angry Men (Уильям Фридкин) [1997, драма, криминал, ..., DVDRip-AVC] [Dub]+[MVO] торрент без регистрации

 
Статистика раздачи
Размер:  1,5 GB   |    Скачан:  133 раза
Сидов:  1  [  0 KB/s  ]  
 
Автор Сообщение

Marsianka

[] 

12 разгневанных мужчин (ТВ) / 12 Angry Men

Год выпуска: 1997
Страна: США
Жанр: драма, криминал, ...
Продолжительность: 01:52:18
Перевод: Дублированный + Профессиональный многоголосый закадровый
Субтитры: English (UTF-8)

Режиссер: Уильям Фридкин
Сценарий: Реджинальд Роуз
Продюсер: Теренс А. Доннелли
Оператор: Фред Шулер
Композитор: Кенион Хопкинс
Художник: Билл Мэлли, Дональд Элмблад
Монтаж: Оджи Хесс


В ролях: Кортни Б. Вэнс (Courtney B. Vance), Осси Дэвис (Ossie Davis), Джордж К. Скотт (George C. Scott), Армин Мюллер-Шталь (Armin Mueller-Stahl), Дориан Хэрвуд (Dorian Harewood), Джеймс Гандольфини (James Gandolfini), Тони Данца (Tony Danza), Джек Леммон (Jack Lemmon), Хьюм Кронин (Hume Cronyn), Майкелти Уильямсон (Mykelti Williamson), Эдвард Джеймс Олмос (Edward James Olmos), Уильям Л. Питерсен (William Petersen), Мэри МакДоннелл (Mary McDonnell), Тайриз Аллен (Tyrees Allen), Дуглас Спэйн (Douglas Spain)

Дублёры: Игорь Тарадайкин (Foreman), Алексей Золотницкий (Juror #2; Juror #11), Владимир Ферапонтов (Juror #3), Рудольф Панков (Juror #4), Дмитрий Матвеев (Juror #5), Юрий Меншагин (Juror #6), Леонид Белозорович (Juror #7), Юрий Саранцев (Juror #8), Владимир Радченко (Juror #9), Сергей Чекан (Juror #10), Александр Новиков (Juror #12), Наталья Вихрова (Judge)

Описание: Юношу обвиняют в убийстве собственного отца, ему грозит электрический стул. Двенадцать присяжных собираются чтобы вынести вердикт: виновен или нет.С начала заседания почти все склонились к тому, что виновен, и лишь только один из двенадцати позволил себе усомниться. Счет голосов присяжных по принципу «виновен невиновен» был 11:1. К концу собрания мнения судей кардинально изменились...
Премьера (мир): 17 августа 1997, ...
Рейтинг MPAA: Детям до 13 лет просмотр не желателен

Релиз группы:


Качество: DVDRip
Формат: MKV
Видео кодек: AVC
Аудио кодеk: AC3
Видео: 720x528 (4:3), 25.000 fps, AVC, 1 330 Kbps
Аудио: Аудио #1: AC3, 192 Kbps, 48.0 KHz, 2 ch Russian (DUB)
Аудио #2: AC3, 192 Kbps, 48.0 KHz, 2 ch Russian (MVO)
Аудио #3: AC3, 192 Kbps, 48.0 KHz, 2 ch English (Original)

Общее
Уникальный идентификатор : 217600468806977646253182811188341669867 (0xA3B4536CCB1DC2B78D44858DBCA67FEB)
Полное имя : 12 Angry Men DVDRip AVC.mkv
Формат : Matroska
Версия формата : Version 2
Размер файла : 1,50 Гбайт
Продолжительность : 1 ч. 52 м.
Общий поток : 1908 Кбит/сек
Дата кодирования : UTC 2012-04-27 20:21:38
Программа кодирования : mkvmerge v5.5.0 ('Healer') built on Apr 6 2012 21:43:24
Библиотека кодирования : libebml v1.2.3 + libmatroska v1.3.0

Видео
Идентификатор : 1
Формат : AVC
Формат/Информация : Advanced Video Codec
Профиль формата : High@L4.1
Параметр CABAC формата : Да
Параметр ReFrames формата : 4 кадра
Идентификатор кодека : V_MPEG4/ISO/AVC
Продолжительность : 1 ч. 52 м.
Битрейт : 1330 Кбит/сек
Ширина : 720 пикселей
Высота : 528 пикселей
Соотношение сторон : 4:3
Частота кадров : 25,000 кадров/сек
Цветовое пространство : YUV
Субдискретизация насыщенности : 4:2:0
Битовая глубина : 8 бит
Тип развёртки : Прогрессивная
Бит/(Пиксели*Кадры) : 0.140
Размер потока : 1,02 Гбайт (68%)
Заголовок : Видео
Библиотека кодирования : x264 core 122 r2184+663+29 dad6db3 tMod [8-bit@all X86]
Настройки программы : cabac=1 / ref=4 / deblock=1:-3:-2 / analyse=0x3:0x133 / me=umh / subme=10 / psy=1 / fade_compensate=0.00 / psy_rd=1.00:0.15 / mixed_ref=1 / me_range=32 / chroma_me=1 / trellis=2 / 8x8dct=1 / cqm=0 / deadzone=21,11 / fast_pskip=0 / chroma_qp_offset=-3 / threads=3 / sliced_threads=0 / nr=0 / decimate=1 / interlaced=0 / bluray_compat=0 / constrained_intra=0 / fgo=0 / bframes=8 / b_pyramid=2 / b_adapt=2 / b_bias=0 / direct=3 / weightb=1 / open_gop=0 / weightp=2 / keyint=250 / keyint_min=25 / scenecut=40 / intra_refresh=0 / rc_lookahead=50 / rc=2pass / mbtree=1 / bitrate=1330 / ratetol=1.0 / qcomp=0.80 / qpmin=0 / qpmax=51 / qpstep=4 / cplxblur=20.0 / qblur=0.5 / ip_ratio=1.40 / aq=1:1.00
Язык : English
Default : Да
Forced : Нет
Основные цвета : BT.470-6 System B, BT.470-6 System G, BT.601-6 625, BT.1358 625, BT.1700 625 PAL, BT.1700 625 SECAM
Характеристики трансфера : BT.470-6 System B, BT.470-6 System G
Коэффициенты матрицы : BT.470-6 System B, BT.470-6 System G, BT.601-6 625, BT.1358 625, BT.1700 625 PAL, BT.1700 625 SECAM, IEC 61966-2-4 601

Аудио #1
Идентификатор : 2
Формат : AC-3
Формат/Информация : Audio Coding 3
Расширение режима : CM (complete main)
Параметр Endianness формата : Big
Идентификатор кодека : A_AC3
Продолжительность : 1 ч. 52 м.
Вид битрейта : Постоянный
Битрейт : 192 Кбит/сек
Каналы : 2 канала
Расположение каналов : Front: L R
Частота : 48,0 КГц
Битовая глубина : 16 бит
Метод сжатия : С потерями
Размер потока : 154 Мбайт (10%)
Заголовок : Аудио 1 - DUB
Язык : Russian
Default : Да
Forced : Нет

Аудио #2
Идентификатор : 3
Формат : AC-3
Формат/Информация : Audio Coding 3
Расширение режима : CM (complete main)
Параметр Endianness формата : Big
Идентификатор кодека : A_AC3
Продолжительность : 1 ч. 52 м.
Вид битрейта : Постоянный
Битрейт : 192 Кбит/сек
Каналы : 2 канала
Расположение каналов : Front: L R
Частота : 48,0 КГц
Битовая глубина : 16 бит
Метод сжатия : С потерями
Размер потока : 154 Мбайт (10%)
Заголовок : Аудио 2 - MVO
Язык : Russian
Default : Нет
Forced : Нет

Аудио #3
Идентификатор : 4
Формат : AC-3
Формат/Информация : Audio Coding 3
Расширение режима : CM (complete main)
Параметр Endianness формата : Big
Идентификатор кодека : A_AC3
Продолжительность : 1 ч. 52 м.
Вид битрейта : Постоянный
Битрейт : 192 Кбит/сек
Каналы : 2 канала
Расположение каналов : Front: L R
Частота : 48,0 КГц
Битовая глубина : 16 бит
Метод сжатия : С потерями
Размер потока : 154 Мбайт (10%)
Заголовок : Аудио 3 - Original
Язык : English
Default : Нет
Forced : Нет

Текст
Идентификатор : 5
Формат : UTF-8
Идентификатор кодека : S_TEXT/UTF8
Идентификатор кодека/Информация : UTF-8 Plain Text
Заголовок : Субтитры
Язык : English
Default : Да
Forced : Нет

Меню
00:00:00.000 : en:Start
00:07:42.600 : en:The Preliminary Vote
00:12:50.040 : en:Once Around the Table
00:23:59.160 : en:The Knife
00:30:26.160 : en:A Proposition
00:34:52.560 : en:Taking a Break
00:39:34.080 : en:Back to Business
00:50:34.200 : en:Changing Votes
00:58:51.320 : en:The Apartment
01:07:04.880 : en:Another Vote
01:10:05.120 : en:A Moment of Reflection
01:14:00.560 : en:Back to Work
01:25:17.480 : en:A Show of Hands
01:31:40.040 : en:Let's Finish What We Started
01:41:37.400 : en:Reaching a Verdict
01:50:04.400 : en:End Credits





















Скачать 12.разгневанных.мужчин.12.Angry.Men.(Уильям.Фридкин).[1997.драма.криминал.DVDRip-AVC].[Dub]+[MVO].torrent без регистрации
Золото ЗОЛОТАЯ РАЗДАЧА! СКАЧАННОЕ НЕ ЗАСЧИТЫВАЕТСЯ! Золото
Дата: Зарегистрирован   [ Тип: внутренний ] Как тут cкачать?
MAGNET ссылка
MAGNET ссылка


Скачать .torrent

15 KB

Статус: проверено DHT
Скачан: торрент - 133 раз, раздача полностью - 221 раз
Размер: 1,5 GB
Оценка:  - (Голосов: 0)
Поблагодарили: 3
Поделиться ссылкой на эту раздачу с друзьями:
В контактеFacebookОдноклассникиTwitterLivejournalМой МирLiveinternet
 

 
Показать сообщения:    


Вы не можете начинать темы
Вы не можете отвечать на сообщения
Вы не можете редактировать свои сообщения
Вы не можете удалять свои сообщения
Вы не можете голосовать в опросах
Вы не можете прикреплять файлы к сообщениям
Вы можете скачивать файлы