Loading...
Error

Скачать Кингсайз / Kingsajz (Юлиуш Махульский) [1987, фэнтези, комедия, DVDRip] [Dub] торрент без регистрации

 
Статистика раздачи
Размер:  2,06 GB   |    Скачан:  154 раза
Сидов:  1  [  0 KB/s  ]  
 
Автор Сообщение

Marsianka

[] 


Информация о фильме
Название: Кингсайз
Оригинальное название: Kingsajz
Год выхода: 1987
Жанр: фэнтези, комедия
Режиссер: Юлиуш Махульский
В ролях: Яцек Хмельник, Ежи Штур, Катажина Фигура, Гжегож Хероминьский, Иоахим Лянжа, Мацей Козловский

О фильме:
«Человек не одинок! Кто-нибудь за ним да следит» иллюстрацией этой грустной и глубокой сентенции польского сатирика-классика Станислава Ежи Леца может служить комедия «Кингсайз» режиссера Юлиуша Махульского.

Среди людей «обычных» размеров живут гномы. Они родом из страны Шкафляндии. Там все гномы. Там все мечтают о свободе, то есть о «стране великанов&raquo. Но попасть к нам, «великанам», гномы могут только с помощью «кингсайза» эликсира, формулу которого в Шкафляндии знают только самые большие начальники.




Страна: Польша
Студия: Zespol Filmowy "Kadr"
Продолжительность: ~01:44:30
Перевод: Профессиональный (дублированный) киностудия им. Горького

Файл
Кодек: XviD
Качество: DVDRip (Исходник - ДВД-5)
Видео: 720x400 (1.76:1), 29.97 fps, ~2400 kbps
Звук: 48 kHz, AC3 Dolby Digital, 2/0 (L,R) ch, ~384.00 kbps
Общее
Полное имя : E:КиноKingsajz.(1987).DVDRip.2.05Gb.avi
Формат : AVI
Формат/Информация : Audio Video Interleave
Профиль формата : OpenDML
Размер файла : 2,06 Гбайт
Продолжительность : 1 ч. 44 м.
Общий поток : 2823 Кбит/сек
Библиотека кодирования : VirtualDub build 34753/release

Видео
Идентификатор : 0
Формат : MPEG-4 Visual
Профиль формата : Advanced Simple@L5
Параметр BVOP формата : Нет
Параметр QPel формата : Нет
Параметр GMC формата : Без точки перехода
Параметр матрицы формата : Default (H.263)
Идентификатор кодека : XVID
Идентификатор кодека/Подсказка : XviD
Продолжительность : 1 ч. 44 м.
Битрейт : 2423 Кбит/сек
Ширина : 720 пикселей
Высота : 400 пикселей
Соотношение сторон : 16:9
Частота кадров : 29,970 кадров/сек
Цветовое пространство : YUV
Субдискретизация насыщенности : 4:2:0
Битовая глубина : 8 бит
Тип развёртки : Чересстрочная
Порядок развёртки : Верхнее поле первое
Метод сжатия : С потерями
Бит/(Пиксели*Кадры) : 0.281
Размер потока : 1,77 Гбайт (86%)
Библиотека кодирования : XviD 64

Аудио
Идентификатор : 1
Формат : AC-3
Формат/Информация : Audio Coding 3
Расширение режима : CM (complete main)
Параметр Endianness формата : Big
Идентификатор кодека : 2000
Продолжительность : 1 ч. 44 м.
Вид битрейта : Постоянный
Битрейт : 384 Кбит/сек
Каналы : 2 канала
Расположение каналов : Front: L R
Частота : 48,0 КГц
Битовая глубина : 16 бит
Метод сжатия : С потерями
Размер потока : 287 Мбайт (14%)
Выравнивание : Соединение по промежуткам
Продолжительность промежутка : 33 мс. (1,00 видеокадр)
Время предзагрузки промежутка : 512 мс.



Скачать Кингсайз.Kingsajz.(Юлиуш.Махульский).[1987.фэнтези.комедия.DVDRip].[Dub].torrent без регистрации
Золото ЗОЛОТАЯ РАЗДАЧА! СКАЧАННОЕ НЕ ЗАСЧИТЫВАЕТСЯ! Золото
Дата: Зарегистрирован   [ Тип: внутренний ] Как тут cкачать?
MAGNET ссылка
MAGNET ссылка


Скачать .torrent

11 KB

Статус: проверено DHT
Скачан: торрент - 154 раз, раздача полностью - 91 раз
Размер: 2,06 GB
Оценка:  5 (Голосов: 1)
Поблагодарили: 2
Поделиться ссылкой на эту раздачу с друзьями:
В контактеFacebookОдноклассникиTwitterLivejournalМой МирLiveinternet
 

 

leon030982

[] 

фильм бомба ag спасибо ay
 
Показать сообщения:    


Вы не можете начинать темы
Вы не можете отвечать на сообщения
Вы не можете редактировать свои сообщения
Вы не можете удалять свои сообщения
Вы не можете голосовать в опросах
Вы не можете прикреплять файлы к сообщениям
Вы можете скачивать файлы