Loading...
Error

Скачать Грабь награбленное / Leverage (3x1-16 из 16) (Дин Девлин, Марк Роскин, Джонатан Фрейкс) [2010 г., детектив, WEB-DLRip] [ТВ3 (FilmGate)] торрент без регистрации

 
Статистика раздачи
Размер:  7,27 GB   |    Скачан:  221 раз

Полного источника не было: 24 минуты

 
Автор Сообщение

МихаНЕзатор

[] 

Воздействие / Leverage


Год выпуска: 2010
Страна: США
Жанр: триллер, драма, криминал
Продолжительность: ~00:43:00
Перевод: Многоголосная, закадровая (ТВ3)
Cубтитры: нет
Режиссёр: Дин Девлин, Марк Роскин, Джонатан Фрейкс

В ролях: Тимоти Хаттон, Джина Беллман, Кристиан Кэйн, Бэт Рисграф, Элдис Ходж, Джери Райан, Марк Шеппард, Элизабетта Каналис, Роберт Бланш, Джералд Дауни

Описание: Нейт Форд бывший следователь страховой компании возглавляет команду в которую входят: компьютерный мошенник Хардисон, воровка и вообще безбашенная особа Паркер, актриса и мошенница Софи и специалист широкого профиля Эллиот. Эта команда помогает людям пострадавшим от рук сильных мира сего, а попросту — воров.


Релиз:

Качество: WEB-DLRip
Формат: AVI
Видео кодек: XviD
Аудио кодек: MP3
Видео: 720x400 (1.80:1), 23.976 fps, XviD MPEG-4 ~1069 kbps avg, 0.16 bit/pixel
Аудио Rus: 48 kHz, MPEG Layer 3, 2 ch, ~192.00 kbps avg
Аудио Eng: 48 kHz, MPEG Layer 3, 2 ch, ~192.00 kbps avg

05.12.2011 г. раздача обновлена, добавлена 14-16 серия!
Внимание! Раздача ведётся путём добавления новых серий; при каждом добавлении создаётся новый торрент. Чтобы начать докачку новой серии, пользователям необходимо сделать следующее:
(1) остановить скачивание,
(2) удалить старый торрент у себя из клиента (старые серии удалять не надо),
(3) скачать новый торрент и запустить его у себя в клиенте вместо старого, при этом указать клиенту путь в старую папку куда и должно происходить скачивание новых серий.
Ваш клиент при этом должен произвести хеширование (проверку) старой папки (если не производит сам - помогите ему сделать это), и будет докачивать только те серии которых у вас ещё нет. Старые серии при этом не удаляются, а продолжают раздаваться!
Eсли вы уже удалили старые серии, то предотвратить повторную закачку старых серий можно, отжав галочку в соответствующих местах при запуске нового торрента. По возможности, желательно не удалять старые серии как можно дольше чтобы релизёр не столько продолжал раздавать старые серии, а смог сконцентрироваться на новых.
01. The Jailhouse Job
02. The Reunion Job
03. The Inside Job
04. The Scheherazade Job
05. The Double-Blind Job
06. The Studio Job
07. The Gone Fishin' Job
08. The Boost Job
09. The Three-Card Monte Job
10. The Underground Job
11. The Rashomon Job
12. The King George Job
13. The Morning After Job
14. The Ho, Ho, Ho Job
15. The Big Bang Job
16. The San Lorenzo Job
Общее
Полное имя : J:\Serial\Leverage.s03.rus.eng.web-dlrip.filmgate_tv\Leverage.s03e01.rus.eng.web-dlrip.filmgate_tv.avi
Формат : AVI
Формат/Информация : Audio Video Interleave
Размер файла : 449 Мбайт
Продолжительность : 42 м.
Общий поток : 1469 Кбит/сек
Программа кодирования : VirtualDubModRus 1.5.10.2 (build 2542/release)
Библиотека кодирования : VirtualDubMod build 2542/release
Видео
Идентификатор : 0
Формат : MPEG-4 Visual
Профиль формата : Advanced Simple@L5
Параметр BVOP формата : 4
Параметр QPel формата : Нет
Параметр GMC формата : Без точки перехода
Параметр матрицы формата : Default (H.263)
Режим смешивания : Сжатый битовый поток
Идентификатор кодека : XVID
Идентификатор кодека/Подсказка : XviD
Продолжительность : 42 м.
Битрейт : 1070 Кбит/сек
Ширина : 720 пикс.
Высота : 400 пикс.
Соотношение сторон : 16:9
Частота кадров : 23,976 кадр/сек
Цветовое пространство : YUV
Подвыборка цветности : 4:2:0
Битовая глубина : 8 бит
Тип развёртки : Прогрессивная
Метод сжатия : С потерями
Бит/(Пиксели*Кадры) : 0.155
Размер потока : 327 Мбайт (73%)
Библиотека кодирования : XviD 57
Аудио #1
Идентификатор : 1
Формат : MPEG Audio
Версия формата : Version 1
Профиль формата : Layer 3
Режим : Joint stereo
Расширение режима : MS Stereo
Идентификатор кодека : 55
Идентификатор кодека/Подсказка : MP3
Продолжительность : 42 м.
Вид битрейта : Постоянный
Битрейт : 192 Кбит/сек
Канал(ы) : 2 канала(ов)
Частота : 48,0 КГц
Метод сжатия : С потерями
Размер потока : 58,6 Мбайт (13%)
Выравнивание : Разделение по промежуткам
Продолжительность промежутка : 42 мс. (1,00 видеокадр)
Время предзагрузки промежутка : 500 ms
Библиотека кодирования : LAME3.98.2
Аудио #2
Идентификатор : 2
Формат : MPEG Audio
Версия формата : Version 1
Профиль формата : Layer 3
Режим : Joint stereo
Расширение режима : MS Stereo
Идентификатор кодека : 55
Идентификатор кодека/Подсказка : MP3
Продолжительность : 42 м.
Вид битрейта : Постоянный
Битрейт : 192 Кбит/сек
Канал(ы) : 2 канала(ов)
Частота : 48,0 КГц
Метод сжатия : С потерями
Размер потока : 58,6 Мбайт (13%)
Выравнивание : Разделение по промежуткам
Продолжительность промежутка : 42 мс. (1,00 видеокадр)
Время предзагрузки промежутка : 500 ms
Библиотека кодирования : LAME3.98.2



Скачать Грабь.награбленное.Leverage.(3x1-16.из.16).(Дин.Девлин.Марк.Роскин.Джонатан.Фрейкс).[2010.г.детектив.WEB-DLRip].[ТВ3.(FilmGate)].torrent без регистрации
Золото ЗОЛОТАЯ РАЗДАЧА! СКАЧАННОЕ НЕ ЗАСЧИТЫВАЕТСЯ! Золото
Дата: Зарегистрирован   [ Тип: внутренний ] Как тут cкачать?
MAGNET ссылка
MAGNET ссылка


Скачать .torrent

38 KB

Статус: проверено DHT
Скачан: торрент - 221 раз, раздача полностью - 136 раз
Размер: 7,27 GB
Оценка:  4 (Голосов: 2)
Поблагодарили: 4
Поделиться ссылкой на эту раздачу с друзьями:
В контактеFacebookОдноклассникиTwitterLivejournalМой МирLiveinternet
 

 
Показать сообщения:    


Вы не можете начинать темы
Вы не можете отвечать на сообщения
Вы не можете редактировать свои сообщения
Вы не можете удалять свои сообщения
Вы не можете голосовать в опросах
Вы не можете прикреплять файлы к сообщениям
Вы можете скачивать файлы