Loading...
Error

Скачать Грабь награбленное / Leverage (Сезон: 1, 2 Полностью) (Дин Девлин /Dean Devlin) [2008-2009, экшн, драма, DVDRip] [LostFilm] торрент без регистрации

 
Статистика раздачи
Размер:  10,71 GB   |    Скачан:  449 раз
Сидов:  1  [  0 KB/s  ]   Личеров:  1  [  0 KB/s  ]  
 
Автор Сообщение

МихаНЕзатор

[] 

Воздействие / Leverage / Сезон: 1, 2 Полный/ (Дин Девлин /Dean Devlin/) [2008-2009, Экшн, драма, DVDRip] LostFilm

Год выпуска: 2008-2009
Страна: США
Жанр: Экшн, драма
Продолжительность: 00:43:00
Перевод: профессиональный двухголосый закадровый (LostFilm)
Русские субтитры: нет
Английские субтитры: есть
Режиссёр: Дин Девлин /Dean Devlin/
Сэмпл: Сэмпл тут

В ролях: Тимоти Хаттон, Элдис Ходж, Кристиан Кэйн, Бэт Рисграф, Джина Беллман, Марк Шеппард, Эндрю Дж. Ли, Джон Бэйли, Алекса Гарднер, Тони Домино, Рон Огюст, Сол Рубинек и др.

Описание: Нейт Форд бывший следователь страховой компании возглавляет команду в которую входят: компьютерный мошенник Хардисон, воровка и вообще безбашенная особа Паркер, актриса и мошенница Софи и специалист широкого профиля Эллиот. Эта команда помогает людям пострадавшим от рук сильных мира сего, а попросту — воров.

Доп. информация: Качество DVDRip, Озвучка (LostFilm)

Ссылка на предыдущие раздачи:

Качество: DVDRip
Формат: AVI
Видео кодек: DivX
Аудио кодек: MP3
Видео: 624x352 (1.77:1), 23.976 fps, XviD MPEG-4 ~993 kbps avg, 0.19 bit/pixel
Аудио Rus: 48 kHz, MPEG Layer 3, 2 ch, ~128.00 kbps avg
Аудио Eng: 48 kHz, MPEG Layer 3, 2 ch, ~133.00 kbps avg

Код:

Format                           : AVI
Format/Info                      : Audio Video Interleave
File size                        : 391 MiB
Duration                         : 42mn 54s
Overall bit rate                 : 1 273 Kbps
Writing application              : VirtualDubModRus 1.5.10.2 (build 2542/release)
Writing library                  : VirtualDubMod build 2542/release

Video
ID                               : 0
Format                           : MPEG-4 Visual
Format profile                   : Advanced Simple@L5
Format settings, BVOP            : Yes
Format settings, QPel            : No
Format settings, GMC             : No warppoints
Format settings, Matrix          : Default (H.263)
Muxing mode                      : Packed bitstream
Codec ID                         : XVID
Codec ID/Hint                    : XviD
Duration                         : 42mn 54s
Bit rate                         : 994 Kbps
Width                            : 624 pixels
Height                           : 352 pixels
Display aspect ratio             : 16:9
Frame rate                       : 23.976 fps
Resolution                       : 8 bits
Colorimetry                      : 4:2:0
Scan type                        : Progressive
Bits/(Pixel*Frame)               : 0.189
Stream size                      : 305 MiB (78%)
Writing library                  : XviD 1.2.1 (UTC 2008-12-04)

Audio #1
ID                               : 1
Format                           : MPEG Audio
Format version                   : Version 1
Format profile                   : Layer 3
Format_Settings_Mode             : Joint stereo
Format_Settings_ModeExtension    : MS Stereo
Codec ID                         : 55
Codec ID/Hint                    : MP3
Duration                         : 42mn 54s
Bit rate mode                    : Constant
Bit rate                         : 128 Kbps
Channel(s)                       : 2 channels
Sampling rate                    : 48.0 KHz
Stream size                      : 39.3 MiB (10%)
Alignment                        : Aligned on interleaves
Interleave, duration             : 42 ms (1.00 video frame)
Interleave, preload duration     : 504 ms

Audio #2
ID                               : 2
Format                           : MPEG Audio
Format version                   : Version 1
Format profile                   : Layer 3
Format_Settings_Mode             : Joint stereo
Format_Settings_ModeExtension    : MS Stereo
Codec ID                         : 55
Codec ID/Hint                    : MP3
Duration                         : 42mn 54s
Bit rate mode                    : Variable
Bit rate                         : 133 Kbps
Channel(s)                       : 2 channels
Sampling rate                    : 48.0 KHz
Video delay                      : 8ms
Stream size                      : 40.9 MiB (10%)
Alignment                        : Aligned on interleaves
Interleave, duration             : 24 ms (0.58 video frame)
Interleave, preload duration     : 144 ms
Writing library                  : LAME3.96



Скачать Грабь.награбленное.Leverage.(Сезон.1.2.Полностью).(Дин.Девлин.Dean.Devlin).[2008-2009.экшн.драма.DVDRip].[LostFilm].torrent без регистрации
Золото ЗОЛОТАЯ РАЗДАЧА! СКАЧАННОЕ НЕ ЗАСЧИТЫВАЕТСЯ! Золото
Дата: Зарегистрирован   [ Тип: внутренний ] Как тут cкачать?
MAGNET ссылка
MAGNET ссылка


Скачать .torrent

60 KB

Статус: проверено DHT
Скачан: торрент - 449 раз, раздача полностью - 296 раз
Размер: 10,71 GB
Оценка:  5 (Голосов: 3)
Поблагодарили: 6
Поделиться ссылкой на эту раздачу с друзьями:
В контактеFacebookОдноклассникиTwitterLivejournalМой МирLiveinternet
 

 

leon030982

[] 

скорости поддайте ab
 
Показать сообщения:    


Вы не можете начинать темы
Вы не можете отвечать на сообщения
Вы не можете редактировать свои сообщения
Вы не можете удалять свои сообщения
Вы не можете голосовать в опросах
Вы не можете прикреплять файлы к сообщениям
Вы можете скачивать файлы