Loading...
Error

Скачать Авария / Breakdown (Джонатан Мостоу) [1997, боевик, триллер, драма, DVDRip] [DVO] (Twister) торрент без регистрации

 
Статистика раздачи
Размер:  745 MB   |    Скачан:  137 раз
Сидов:  1  [  0 KB/s  ]  
 
Автор Сообщение

leon030982

[] 

Авария / Breakdown
Страна: США
Жанр: боевик, триллер, драма
Год выпуска: 1997
Продолжительность: 01:33:18
Перевод: Профессиональный (двухголосый закадровый) Twister
Cубтитры: нет
Режиссер: Джонатан Мостоу / Jonathan Mostow
В ролях: Курт Рассел, Дж.Т. Уолш, Кэтлин Куинлен, М. К. Гейни, Джек Ноузуорти, Рекс Линн, Рич Бринкли, Мойра Харрис, Ким Робиллард, Томас Копаче
Описание: Джефф и Эми Тейлор решили переехать к новому месту жительства в Сан-Диего на дорогом джипе. По дороге Джефф чуть не врезался в пикап с двумя местными отморозками. А когда джип неожиданно заглох на обочине пустынной трассы, водитель попутного трейлера Рэд Барр предложил подвезти Эми до ближайшего телефона, а Джефф остался охранять машину. С этого момента его жизнь превращается в кошмарный сон. В придорожном кафе, где он договорился встретиться с женой, Джефф не находит Эми. Оказывается, доморощенные бандиты решили взять за похищенную женщину выкуп. И тогда миролюбивый обыватель Джефф, вырвавшись из-под стволов вымогателей, сам превращается в безжалостного охотника…


Качество видео: DVDRip
Формат видео: AVI
Видео: 640x464 (1.38:1), 25 fps, XviD build 64 ~979 kbps avg, 0.13 bit/pixel
Аудио: 48 kHz, MPEG Layer 3, 2 ch, ~128.00 kbps avg
General
Complete name : D:\Релизы\(1997) Авария.avi
Format : AVI
Format/Info : Audio Video Interleave
File size : 745 MiB
Duration : 1h 33mn
Overall bit rate : 1 117 Kbps
Writing application : VirtualDubMod 1.5.10.3 | www.virtualdub-fr.org || (build 2550/release)
Writing library : VirtualDubMod build 2550/release
Video
ID : 0
Format : MPEG-4 Visual
Format profile : Advanced Simple@L5
Format settings, BVOP : 1
Format settings, QPel : No
Format settings, GMC : No warppoints
Format settings, Matrix : Custom
Codec ID : XVID
Codec ID/Hint : XviD
Duration : 1h 33mn
Bit rate : 979 Kbps
Width : 640 pixels
Height : 464 pixels
Display aspect ratio : 1.379
Frame rate : 25.000 fps
Color space : YUV
Chroma subsampling : 4:2:0
Bit depth : 8 bits
Scan type : Progressive
Compression mode : Lossy
Bits/(Pixel*Frame) : 0.132
Stream size : 654 MiB (88%)
Writing library : XviD 64
Audio
ID : 1
Format : MPEG Audio
Format version : Version 1
Format profile : Layer 3
Mode : Joint stereo
Mode extension : MS Stereo
Codec ID : 55
Codec ID/Hint : MP3
Duration : 1h 33mn
Bit rate mode : Constant
Bit rate : 128 Kbps
Channel(s) : 2 channels
Sampling rate : 48.0 KHz
Compression mode : Lossy
Stream size : 85.4 MiB (11%)
Alignment : Aligned on interleaves
Interleave, duration : 40 ms (1.00 video frame)
Interleave, preload duration : 504 ms
Writing library : LAME3.98r
Encoding settings : -m j -V 4 -q 2 -lowpass 17 -b 128



Скачать Авария.Breakdown.(Джонатан.Мостоу).[1997.боевик.триллер.драма.DVDRip].[DVO].(Twister).torrent без регистрации
Золото ЗОЛОТАЯ РАЗДАЧА! СКАЧАННОЕ НЕ ЗАСЧИТЫВАЕТСЯ! Золото
Дата: Зарегистрирован   [ Тип: внутренний ] Как тут cкачать?
MAGNET ссылка
MAGNET ссылка


Скачать .torrent

15 KB

Статус: проверено DHT
Скачан: торрент - 137 раз, раздача полностью - 6 раз
Размер: 745 MB
Оценка:  - (Голосов: 0)
Поблагодарили: 2
Поделиться ссылкой на эту раздачу с друзьями:
В контактеFacebookОдноклассникиTwitterLivejournalМой МирLiveinternet
 

 
Показать сообщения:    


Вы не можете начинать темы
Вы не можете отвечать на сообщения
Вы не можете редактировать свои сообщения
Вы не можете удалять свои сообщения
Вы не можете голосовать в опросах
Вы не можете прикреплять файлы к сообщениям
Вы можете скачивать файлы