Loading...
Error

Скачать Мёртвая зона / The Dead zone (1x01-13 из 13) (Мишель Пиллер, Шон Пиллер) [2002, фантастика, приключения, драма, DVD-Remux] [MVO]+ [ОРТ]+ [Original] торрент без регистрации

 
Статистика раздачи
Размер:  16,43 GB   |    Скачан:  159 раз
Сидов:  1  [  0 KB/s  ]  
 
Автор Сообщение

Dr_Shmurge

[] 

....................................

Год выпуска: 2002
Страна: США
Жанр: Фантастика, Приключения, Драма
Продолжительность: ~43 мин.
Перевод: Профессиональный многоголосый закадровый [ОРТ]
Субтитры: английские, испанские, португальские
Русские субтитры: нет
Режиссёр: Мишель Пиллер, Шон Пиллер
В ролях: Энтони Майкл Холл, Николь де Боэр, Крис Бруно
Качество: DVD-Remux
Формат: MKV
Видео кодек: MPEG2
Аудио кодек: AC3
Видео: MPEG Video | NTSC | 16:9 | 720x480 | 9800 kb/s | 0.355 b/p
Аудио 1: ОРТ | AC3 | 48kHz | 2.0 | 256 kb/s
Аудио 2: English | AC3 | 5.1 | 448 kb/s


Описание:
«Мёртвая зона», или «Мёртвая зона Стивена Кинга» (англ. The Dead Zone, англ. Stephen King's Dead Zone) - фантастический сериал американо-канадского производства, с Энтони Майклом Холлом в главной роли. Главный персонаж (Джон Смит) и основная сюжетная линия взяты из одноимённого романа Стивена Кинга. После страшной автокатастрофы Джонни Смит 6 лет провел в коме. В один прекрасный день он приходит в себя и понимает, что его жизнь не такая как прежде... Жизнь Джонни была почти идеальной до автокатастрофы, после которой он погрузился в кому на 6 лет. Когда Джонни приходит в себя, он узнает, что все в его жизни изменилось. Его мать умерла, бывшая невеста, Сара, вышла замуж за другого и родила сына. И сам Джонни тоже изменился – после комы он приобрел дар ясновидения: теперь он может видеть прошлое и будущее любого человека стоит ему дотронуться до того. Джонни пытается научиться жить со своими новыми способностями, способностями, которые могут оказаться как проклятьем так и благословением. Начать новую жизнь Джонни помогают тренер по имени Брюс, который также становится близким другом, Джин, бывший пастор его матери и Сара, которой приходится совмещать свою семейную жизнь с помощью Джонни.
Общее
Уникальный идентификатор : 230419732019229935555464657177030726382 (0xAD5939E61A831A3DBD70990CD86C92EE)
Полное имя : ...\Dead Zone\Season 1\1x01 Wheel of Fortune [ОРТ]+[ENG].mkv
Формат : Matroska
Размер файла : 1,33 Гбайт
Продолжительность : 42 м.
Общий поток : 4467 Кбит/сек
Дата кодирования : UTC 2012-02-29 23:26:55
Программа кодирования : mkvmerge v5.3.0 ('I could have danced') built on Feb 9 2012 10:38:07
Библиотека кодирования : libebml v1.2.3 + libmatroska v1.3.0
Видео
Идентификатор : 1
Формат : MPEG Video
Версия формата : Version 2
Профиль формата : Main@Main
Параметр BVOP формата : Нет
Параметр матрицы формата : По умолчанию
Идентификатор кодека : V_MPEG2
Идентификатор кодека/Информация: MPEG 1 or 2 Video
Продолжительность : 42 м.
Вид битрейта : Переменный
Битрейт : 3674 Кбит/сек
Номинальный битрейт : 9800 Кбит/сек
Ширина : 720 пикс.
Высота : 480 пикс.
Соотношение сторон : 16:9
Соотношение сторон в оригинале : 16:9
Частота кадров : 29,970 кадр/сек
Стандарт вещания : Component
Цветовое пространство : YUV
Подвыборка цветности : 4:2:0
Битовая глубина : 8 бит
Тип развёртки : Прогрессивная
Порядок развёртки : Верхнее поле первое
Метод сжатия : С потерями
Бит/(Пиксели*Кадры) : 0.355
Размер потока : 1,09 Гбайт (82%)
Язык : English
Аудио #1
Идентификатор : 2
Формат : AC-3
Формат/Информация : Audio Coding 3
Расширение режима : CM (complete main)
Идентификатор кодека : A_AC3
Продолжительность : 42 м.
Вид битрейта : Постоянный
Битрейт : 256 Кбит/сек
Каналы : 2 канала
Расположение каналов : Front: L R
Частота : 48,0 КГц
Битовая глубина : 16 бит
Метод сжатия : С потерями
Размер потока : 77,8 Мбайт (6%)
Заголовок : ОРТ
Язык : Russian
Аудио #2
Идентификатор : 3
Формат : AC-3
Формат/Информация : Audio Coding 3
Расширение режима : CM (complete main)
Идентификатор кодека : A_AC3
Продолжительность : 42 м.
Вид битрейта : Постоянный
Битрейт : 448 Кбит/сек
Каналы : 6 каналов
Расположение каналов : Front: L C R, Side: L R, LFE
Частота : 48,0 КГц
Битовая глубина : 16 бит
Метод сжатия : С потерями
Размер потока : 136 Мбайт (10%)
Заголовок : English
Язык : English
Текст #1
Идентификатор : 4
Формат : VobSub
Режим смешивания : zlib
Идентификатор кодека : S_VOBSUB
Идентификатор кодека/Информация: The same subtitle format used on DVDs
Язык : English
Текст #2
Идентификатор : 5
Формат : VobSub
Режим смешивания : zlib
Идентификатор кодека : S_VOBSUB
Идентификатор кодека/Информация: The same subtitle format used on DVDs
Язык : Spanish
Текст #3
Идентификатор : 6
Формат : VobSub
Режим смешивания : zlib
Идентификатор кодека : S_VOBSUB
Идентификатор кодека/Информация: The same subtitle format used on DVDs
Язык : Portuguese
Меню
00 : 00:00.000 : en:Chapter 01
00 : 13:55.034 : en:Chapter 02
00 : 20:43.775 : en:Chapter 03
00 : 30:04.002 : en:Chapter 04
00 : 37:15.967 : en:Chapter 05



Скачать Мёртвая.зона.The.Dead.zone.(1x01-13.из.13).(Мишель.Пиллер.Шон.Пиллер).[2002.фантастика.приключения.драма.DVD-Remux].[MVO]+.[ОРТ]+.[Original].torrent без регистрации
Золото ЗОЛОТАЯ РАЗДАЧА! СКАЧАННОЕ НЕ ЗАСЧИТЫВАЕТСЯ! Золото
Дата: Зарегистрирован   [ Тип: внутренний ] Как тут cкачать?
MAGNET ссылка
MAGNET ссылка


Скачать .torrent

43 KB

Статус: проверено DHT
Скачан: торрент - 159 раз, раздача полностью - 47 раз
Размер: 16,43 GB
Оценка:  - (Голосов: 0)
Поблагодарили: 3
Поделиться ссылкой на эту раздачу с друзьями:
В контактеFacebookОдноклассникиTwitterLivejournalМой МирLiveinternet
 

 
Показать сообщения:    


Вы не можете начинать темы
Вы не можете отвечать на сообщения
Вы не можете редактировать свои сообщения
Вы не можете удалять свои сообщения
Вы не можете голосовать в опросах
Вы не можете прикреплять файлы к сообщениям
Вы можете скачивать файлы