Loading...
Error

Скачать Истоки опасности / Background to Danger (Рауль Уолш / Raoul Walsh) [1943, США, триллер, драма, военный, DVDRip] [VO] + [Original Eng] торрент без регистрации

 
Статистика раздачи
Размер:  1,46 GB   |    Скачан:  125 раз

Полного источника не было: 21 минута

 
Автор Сообщение

Dr_Shmurge

[] 

Истоки опасности / Background to Danger
Страна: США
Жанр: триллер, драма, военный
Год выпуска: 1943
Продолжительность: 01:20:03
Перевод: Одноголосый закадровый
Cубтитры: нет
Оригинальная аудиодорожка: английский
Режиссер: Рауль Уолш / Raoul Walsh

В ролях: Джордж Рафт /George Raft/, Бренда Маршалл /Brenda Marshall/, Сидни Гринстрит /Sydney Greenstreet/, Оза Мэссен /Osa Massen/, Петер Лорре /Peter Lorre/, Турхан Бей /Turhan Bey/, Уиллард Робертсон /Willard Robertson/, Нино Беллини /Nino Bellini/, Джон Блейфер /John Bleifer/

Описание: Дело было в нейтральной Турции, во время Второй Мировой.
С виду простой парень, по имени Джо Бартон, в поезде знакомиться с очаровательной дамой.
Дама, как водится, просит Джо припрятать у себя конверт. Очаровательную даму по ходу пьесы убивают, в свою очередь Джо оказался втянут в разборки агентов всех мастей...
По роману Эрика Эмблера /Eric Ambler/.

Качество видео: DVDRip
Формат видео: AVI
Видео: 656x480 (1.37:1), 23.976 fps, XviD build 50 ~2214 kbps avg, 0.29 bit/pixel
Аудио: 48 kHz, AC3 Dolby Digital, 2/0 (L,R) ch, ~192.00 kbps avg - Русский одноголосый
Аудио 2: 48 kHz, AC3 Dolby Digital, 2/0 (L,R) ch, ~192.00 kbps avg - Английский
General
Complete name : D:\Раздачи\istokiopasnosti.avi
Format : AVI
Format/Info : Audio Video Interleave
File size : 1.46 GiB
Duration : 1h 20mn
Overall bit rate : 2 614 Kbps
Writing application : VirtualDubMod 1.5.10.2 (build 2540/release)
Writing library : VirtualDubMod build 2540/release
Video
ID : 0
Format : MPEG-4 Visual
Format profile : Advanced Simple@L5
Format settings, BVOP : 2
Format settings, QPel : No
Format settings, GMC : No warppoints
Format settings, Matrix : Default (H.263)
Codec ID : XVID
Codec ID/Hint : XviD
Duration : 1h 20mn
Bit rate : 2 215 Kbps
Width : 656 pixels
Height : 480 pixels
Display aspect ratio : 4:3
Frame rate : 23.976 fps
Color space : YUV
Chroma subsampling : 4:2:0
Bit depth : 8 bits
Scan type : Progressive
Compression mode : Lossy
Bits/(Pixel*Frame) : 0.293
Stream size : 1.24 GiB (85%)
Writing library : XviD 1.2.1 (UTC 2008-12-04)
Audio #1
ID : 1
Format : AC-3
Format/Info : Audio Coding 3
Mode extension : CM (complete main)
Codec ID : 2000
Duration : 1h 20mn
Bit rate mode : Constant
Bit rate : 192 Kbps
Channel(s) : 2 channels
Channel positions : Front: L R
Sampling rate : 48.0 KHz
Bit depth : 16 bits
Compression mode : Lossy
Stream size : 110 MiB (7%)
Alignment : Split accross interleaves
Interleave, duration : 42 ms (1.00 video frame)
Interleave, preload duration : 500 ms
Audio #2
ID : 2
Format : AC-3
Format/Info : Audio Coding 3
Mode extension : CM (complete main)
Codec ID : 2000
Duration : 1h 20mn
Bit rate mode : Constant
Bit rate : 192 Kbps
Channel(s) : 2 channels
Channel positions : Front: L R
Sampling rate : 48.0 KHz
Bit depth : 16 bits
Compression mode : Lossy
Stream size : 110 MiB (7%)
Alignment : Split accross interleaves
Interleave, duration : 42 ms (1.00 video frame)
Interleave, preload duration : 500 ms



Скачать Истоки.опасности.Background.to.Danger.(Рауль.Уолш.Raoul.Walsh).[1943.США.триллер.драма.военный.DVDRip].[VO].+.[Original.Eng].torrent без регистрации
Золото ЗОЛОТАЯ РАЗДАЧА! СКАЧАННОЕ НЕ ЗАСЧИТЫВАЕТСЯ! Золото
Дата: Зарегистрирован   [ Тип: внутренний ] Как тут cкачать?
MAGNET ссылка
MAGNET ссылка


Скачать .torrent

15 KB

Статус: проверено DHT
Скачан: торрент - 125 раз, раздача полностью - 9 раз
Размер: 1,46 GB
Оценка:  - (Голосов: 0)
Поблагодарили: 2
Поделиться ссылкой на эту раздачу с друзьями:
В контактеFacebookОдноклассникиTwitterLivejournalМой МирLiveinternet
 

 
Показать сообщения:    


Вы не можете начинать темы
Вы не можете отвечать на сообщения
Вы не можете редактировать свои сообщения
Вы не можете удалять свои сообщения
Вы не можете голосовать в опросах
Вы не можете прикреплять файлы к сообщениям
Вы можете скачивать файлы