Loading...
Error

Скачать Каникулы в Вегасе / Vegas Vacation (Стивен Кесслер) [1997, комедия, семейный, HDTVRip] [MVO]+[MVO (Россия 1)] торрент без регистрации

 
Статистика раздачи
Размер:  1,45 GB   |    Скачан:  159 раз
Сидов:  1  [  0 KB/s  ]  
 
Автор Сообщение

Dr_Shmurge

[] 

Каникулы в Вегасе / Vegas Vacation

Страна: США
Жанр: комедия, семейный
Год выпуска: 1997
Продолжительность: 01:30:33
Перевод 1: Профессиональный (многоголосый закадровый)
Перевод 2: Профессиональный (многоголосый закадровый) Россия 1
Cубтитры: нет
Режиссер: Стивен Кесслер / Stephen Kessler

В ролях: Чеви Чейз, Беверли Д’Анджело, Рэнди Куэйд, Итэн Эмбри, Марисоль Николс, Мириам Флинн, Шаэ Д’Лин, Уэйн Ньютон, Зигфрид Фишбахер, Рой Хорн...

Описание: Семейство Грисуолдов во главе с папой Кларком полным составом отправляется на отдых в Лас-Вегас. Лас-Вегас, традиционно известный как игорный и развлекательный центр, встречает гостей во всем великолепии. Цирк, эстрада, карнавальные шествия и, конечно, бесчисленные казино, — ну как тут не соблазниться и не попытать счастья?!
Папа Кларк решает, что пусть вся семья развлекается каждый на свой лад. Его жена Эллен вначале возражает, но недостаточно активно. Ее тянет послушать блестящее исполнение песен местной знаменитости Уэйна Ньютона.
Сын Расти легко вошел в тусовку прожигателей жизни, а у младшей дочери Одри произошла сильная переоценка ценностей после того, как она примерила новое платье.
И, наконец, сам глава семьи, увлекшись блэк-джеком и покером, проиграл почти весь семейный бюджет. Отдыхавший поблизости кузен Эдди, большой оригинал, — даже он оказался не самым лучшим советчиком папе Кларку и тоже проигрался… Кто же знал, чем чреваты соблазны Лас-Вегаса?

Качество видео: HDTVRip
Формат видео: AVI
Видео: 720x400 (1.80:1), 23.975 fps, XviD MPEG-4 ~1643 kbps avg, 0.24 bit/pixel
Аудио 1: 48 kHz, AC3 Dolby Digital, 3/2 (L,C,R,l,r) + LFE ch, ~448 kbps
Аудио 2: 48 kHz, AC3 Dolby Digital, 2/0 (L,R) ch, ~192 kbps
General
Complete name : C:\Vegas Vacation.avi
Format : AVI
Format/Info : Audio Video Interleave
File size : 1.45 GiB
Duration : 1h 30mn
Overall bit rate : 2 298 Kbps
Writing application : VirtualDubMod 1.5.10.3 (build 2550/release)
Writing library : VirtualDubMod build 2550/release
Video
ID : 0
Format : MPEG-4 Visual
Format profile : Advanced Simple@L5
Format settings, BVOP : 2
Format settings, QPel : No
Format settings, GMC : No warppoints
Format settings, Matrix : Default (H.263)
Muxing mode : Packed bitstream
Codec ID : XVID
Codec ID/Hint : XviD
Duration : 1h 30mn
Bit rate : 1 644 Kbps
Width : 720 pixels
Height : 400 pixels
Display aspect ratio : 16:9
Frame rate : 23.976 fps
Color space : YUV
Chroma subsampling : 4:2:0
Bit depth : 8 bits
Scan type : Progressive
Compression mode : Lossy
Bits/(Pixel*Frame) : 0.238
Stream size : 1.04 GiB (72%)
Writing library : XviD 64
Audio #1
ID : 1
Format : AC-3
Format/Info : Audio Coding 3
Mode extension : CM (complete main)
Format settings, Endianness : Big
Codec ID : 2000
Duration : 1h 30mn
Bit rate mode : Constant
Bit rate : 448 Kbps
Channel(s) : 6 channels
Channel positions : Front: L C R, Side: L R, LFE
Sampling rate : 48.0 KHz
Bit depth : 16 bits
Compression mode : Lossy
Stream size : 290 MiB (19%)
Alignment : Aligned on interleaves
Interleave, duration : 42 ms (1.00 video frame)
Interleave, preload duration : 512 ms
Audio #2
ID : 2
Format : AC-3
Format/Info : Audio Coding 3
Mode extension : CM (complete main)
Format settings, Endianness : Big
Codec ID : 2000
Duration : 1h 30mn
Bit rate mode : Constant
Bit rate : 192 Kbps
Channel(s) : 2 channels
Channel positions : Front: L R
Sampling rate : 48.0 KHz
Bit depth : 16 bits
Compression mode : Lossy
Stream size : 124 MiB (8%)
Alignment : Split accross interleaves
Interleave, duration : 42 ms (1.00 video frame)
Interleave, preload duration : 500 ms



Скачать Каникулы.в.Вегасе.Vegas.Vacation.(Стивен.Кесслер).[1997.комедия.семейный.HDTVRip].[MVO]+[MVO.(Россия.1)].torrent без регистрации
Золото ЗОЛОТАЯ РАЗДАЧА! СКАЧАННОЕ НЕ ЗАСЧИТЫВАЕТСЯ! Золото
Дата: Зарегистрирован   [ Тип: внутренний ] Как тут cкачать?
MAGNET ссылка
MAGNET ссылка


Скачать .torrent

15 KB

Статус: проверено DHT
Скачан: торрент - 159 раз, раздача полностью - 11 раз
Размер: 1,45 GB
Оценка:  - (Голосов: 0)
Поблагодарили: 2
Поделиться ссылкой на эту раздачу с друзьями:
В контактеFacebookОдноклассникиTwitterLivejournalМой МирLiveinternet
 

 
Показать сообщения:    


Вы не можете начинать темы
Вы не можете отвечать на сообщения
Вы не можете редактировать свои сообщения
Вы не можете удалять свои сообщения
Вы не можете голосовать в опросах
Вы не можете прикреплять файлы к сообщениям
Вы можете скачивать файлы