Loading...
Error

Скачать Мост в никуда / Bridge to Nowhere (Йен Мун) [1986, ужасы, триллер, драма, VHSRip] [AVO] (Андрей Гаврилов) торрент без регистрации

 
Статистика раздачи
Размер:  1,33 GB   |    Скачан:  137 раз
Сидов:  1  [  0 KB/s  ]  
 
Автор Сообщение

leon030982

[] 

Мост в никуда / Bridge to Nowhere
Страна: Новая Зеландия
Жанр: ужасы, триллер, драма
Год выпуска: 1986
Продолжительность: 01:26:42
Перевод: Авторский (одноголосый закадровый) Андрей Гаврилов
Cубтитры: нет
Режиссер: Йен Мун / Ian Mune

В ролях: Мэттью Хантер, Маргарет Амберс, Шелли Лаксфорд, Стефен Джудд, Филлип Гордон, Бруно Лоуренс, Элисон Рутледж, Ширли Груэр, Питер МакКоли, Норман Фэйрли

Описание: Отправившись в турпоход по лесу с целью найти легендарный «мост в никуда», пятеро тинэйджеров встречают мрачного отшельника, который решительно не желает видеть на своей территории городских чужаков...


Качество видео: VHSRip
Формат видео: AVI
Видео: 688x496 (1.39:1), 29.970 fps, XviD build 50 ~1997 kbps avg, 0.20 bit/pixel
Аудио: 48 kHz, AC3 Dolby Digital, 2/0 (L,R) ch, ~192.00 kbps avg
Полное имя : C:\Documents and Settings\Заяц\Мои документы\фильмы\Bridge.to.Nowhere.1986.avi
Формат : AVI
Формат/Информация : Audio Video Interleave
Размер файла : 1,33 Гбайт
Продолжительность : 1 ч. 26 м.
Общий поток : 2200 Кбит/сек
Программа кодирования : VirtualDubMod 1.5.10.3 (build 2550/release)
Библиотека кодирования : VirtualDubMod build 2550/release
Видео
Идентификатор : 0
Формат : MPEG-4 Visual
Профиль формата : Advanced Simple@L5
Параметр BVOP формата : 1
Параметр QPel формата : Нет
Параметр GMC формата : Без точки перехода
Параметр матрицы формата : Default (H.263)
Идентификатор кодека : XVID
Идентификатор кодека/Подсказка : XviD
Продолжительность : 1 ч. 26 м.
Битрейт : 1997 Кбит/сек
Ширина : 688 пикселей
Высота : 496 пикселей
Соотношение сторон : 1,387
Частота кадров : 29,970 кадров/сек
Цветовое пространство : YUV
Субдискретизация насыщенности : 4:2:0
Битовая глубина : 8 бит
Тип развёртки : Прогрессивная
Метод сжатия : С потерями
Бит/(Пиксели*Кадры) : 0.195
Размер потока : 1,21 Гбайт (91%)
Библиотека кодирования : XviD 1.2.1 (UTC 2008-12-04)
Аудио
Идентификатор : 1
Формат : AC-3
Формат/Информация : Audio Coding 3
Расширение режима : CM (complete main)
Параметр Endianness формата : Big
Идентификатор кодека : 2000
Продолжительность : 1 ч. 26 м.
Вид битрейта : Постоянный
Битрейт : 192 Кбит/сек
Каналы : 2 канала
Расположение каналов : Front: L R
Частота : 48,0 КГц
Битовая глубина : 16 бит
Метод сжатия : С потерями
Размер потока : 119 Мбайт (9%)
Выравнивание : Соединение по промежуткам
Продолжительность промежутка : 33 мс. (1,00 видеокадр)
Время предзагрузки промежутка : 512 мс.



Скачать Мост.в.никуда.Bridge.to.Nowhere.(Йен.Мун).[1986.ужасы.триллер.драма.VHSRip].[AVO].(Андрей.Гаврилов).torrent без регистрации
Золото ЗОЛОТАЯ РАЗДАЧА! СКАЧАННОЕ НЕ ЗАСЧИТЫВАЕТСЯ! Золото
Дата: Зарегистрирован   [ Тип: внутренний ] Как тут cкачать?
MAGNET ссылка
MAGNET ссылка


Скачать .torrent

14 KB

Статус: проверено DHT
Скачан: торрент - 137 раз, раздача полностью - 7 раз
Размер: 1,33 GB
Оценка:  - (Голосов: 0)
Поблагодарили: 1
Поделиться ссылкой на эту раздачу с друзьями:
В контактеFacebookОдноклассникиTwitterLivejournalМой МирLiveinternet
 

 
Показать сообщения:    


Вы не можете начинать темы
Вы не можете отвечать на сообщения
Вы не можете редактировать свои сообщения
Вы не можете удалять свои сообщения
Вы не можете голосовать в опросах
Вы не можете прикреплять файлы к сообщениям
Вы можете скачивать файлы