Loading...
Error

Скачать Служители дьявола / Spellbinde (Джанет Грик) [1988, ужасы, триллер, DVDRip-AVC] [MVO] + [Original Eng] торрент без регистрации

 
Статистика раздачи
Размер:  1,51 GB   |    Скачан:  137 раз
Сидов:  1  [  0 KB/s  ]  
 
Автор Сообщение

leon030982

[] 

Служители дьявола / Spellbinder
Страна: США
Жанр: ужасы, триллер
Год выпуска: 1988
Продолжительность: 01:39:06
Перевод: Профессиональный (многоголосый закадровый) - НТВ+
Cубтитры: нет
Оригинальная аудиодорожка: английская дорожка
Режиссер: Джанет Грик / Janet Greek
В ролях: Тим Дейли / Tim Daly, Келли Престон / Kelly Preston, Рик Россович / Rick Rossovich, Одра Линдли / Audra Lindley, Кэри-Хироюки Тагава / Cary-Hiroyuki Tagawa

Описание: Джефф спасает девушку из лап её разбушевавшегося приятеля и тем самым оказывается втянут в большие неприятности. Девушка рассказывает ему, что она бывшая ведьма, спасающаяся от гнева своих бывших коллег. Впрочем, никто не даст Джеффу гарантий, что она говорит правду.

Kинопоиск- 4.714 (7)
IMDB - 5.60/10 (818)
Качество видео: DVDRip
Формат видео: MKV
Видео: 720x384 (1.875) / 23.976 fps / H.264 / 1800 kbps / 0.272 bit/pixel
Аудио 1: Russian (Dolby AC3, 192 Kbps, 2 ch)
Аудио 2: English (Dolby AC3, 192 Kbps, 2 ch)
General
Unique ID : 234090080984453052520665049640144796834 (0xB01C1C1304BBBB4E80A66E2EA774FCA2)
Complete name : C:\TORRENT\Spellbinder.mkv
Format : Matroska
Format version : Version 2
File size : 1.51 GiB
Duration : 1h 39mn
Overall bit rate : 2 184 Kbps
Encoded date : UTC 2012-05-03 15:39:54
Writing application : mkvmerge v5.2.0 ('I can't explain') built on Dec 18 2011 18:12:03
Writing library : libebml v1.2.3 + libmatroska v1.3.0
Video
ID : 1
Format : AVC
Format/Info : Advanced Video Codec
Format profile : High@L3.0
Format settings, CABAC : Yes
Format settings, ReFrames : 4 frames
Codec ID : V_MPEG4/ISO/AVC
Duration : 1h 39mn
Bit rate : 1 800 Kbps
Width : 720 pixels
Height : 384 pixels
Display aspect ratio : 1.875
Frame rate mode : Variable
Frame rate : 23.976 fps
Color space : YUV
Chroma subsampling : 4:2:0
Bit depth : 8 bits
Scan type : Progressive
Bits/(Pixel*Frame) : 0.272
Stream size : 1.22 GiB (80%)
Writing library : x264 core 115 r1947 b5a8ad7
Encoding settings : cabac=1 / ref=3 / deblock=1:0:0 / analyse=0x3:0x113 / me=hex / subme=7 / psy=1 / psy_rd=1.00:0.00 / mixed_ref=1 / me_range=16 / chroma_me=1 / trellis=1 / 8x8dct=1 / cqm=0 / deadzone=21,11 / fast_pskip=1 / chroma_qp_offset=-2 / threads=3 / sliced_threads=0 / nr=0 / decimate=1 / interlaced=0 / bluray_compat=0 / constrained_intra=0 / bframes=3 / b_pyramid=2 / b_adapt=1 / b_bias=0 / direct=1 / weightb=1 / open_gop=0 / weightp=2 / keyint=250 / keyint_min=23 / scenecut=40 / intra_refresh=0 / rc_lookahead=40 / rc=2pass / mbtree=1 / bitrate=1800 / ratetol=1.0 / qcomp=0.60 / qpmin=0 / qpmax=51 / qpstep=4 / cplxblur=20.0 / qblur=0.5 / ip_ratio=1.40 / aq=1:1.00
Default : Yes
Forced : No
Audio #1
ID : 2
Format : AC-3
Format/Info : Audio Coding 3
Mode extension : CM (complete main)
Muxing mode : Header stripping
Codec ID : A_AC3
Duration : 1h 39mn
Bit rate mode : Constant
Bit rate : 192 Kbps
Channel(s) : 2 channels
Channel positions : Front: L R
Sampling rate : 48.0 KHz
Bit depth : 16 bits
Compression mode : Lossy
Stream size : 136 MiB (9%)
Language : Russian
Default : Yes
Forced : No
Audio #2
ID : 3
Format : AC-3
Format/Info : Audio Coding 3
Mode extension : CM (complete main)
Muxing mode : Header stripping
Codec ID : A_AC3
Duration : 1h 39mn
Bit rate mode : Constant
Bit rate : 192 Kbps
Channel(s) : 2 channels
Channel positions : Front: L R
Sampling rate : 48.0 KHz
Bit depth : 16 bits
Compression mode : Lossy
Stream size : 136 MiB (9%)
Language : English
Default : No
Forced : No



Скачать Служители.дьявола.Spellbinde.(Джанет.Грик).[1988.ужасы.триллер.DVDRip-AVC].[MVO].+.[Original.Eng].torrent без регистрации
Золото ЗОЛОТАЯ РАЗДАЧА! СКАЧАННОЕ НЕ ЗАСЧИТЫВАЕТСЯ! Золото
Дата: Зарегистрирован   [ Тип: внутренний ] Как тут cкачать?
MAGNET ссылка
MAGNET ссылка


Скачать .torrent

16 KB

Статус: проверено DHT
Скачан: торрент - 137 раз, раздача полностью - 5 раз
Размер: 1,51 GB
Оценка:  - (Голосов: 0)
Поблагодарили: 0
Поделиться ссылкой на эту раздачу с друзьями:
В контактеFacebookОдноклассникиTwitterLivejournalМой МирLiveinternet
 

 
Показать сообщения:    


Вы не можете начинать темы
Вы не можете отвечать на сообщения
Вы не можете редактировать свои сообщения
Вы не можете удалять свои сообщения
Вы не можете голосовать в опросах
Вы не можете прикреплять файлы к сообщениям
Вы можете скачивать файлы