Loading...
Error

Скачать Ва Банк / Vabank (Юлиуш Махульский) [1981, комедия, детектив, HDTVRip-AVC] [VO] (Советский синхрон, Добряков) + [MVO] + [Pol] + [Sub] (Rus, Eng) торрент без регистрации

 
Статистика раздачи
Размер:  2,19 GB   |    Скачан:  157 раз

Полного источника не было: 25 минут

 
Автор Сообщение

leon030982

[] 

Ва Банк / Vabank
Год выпуска: 1981
Страна: Польша
Жанр: комедия, криминал, детектив
Продолжительность: 01:44:46
Перевод #1: профессиональный (студийный одноголосый закадровый, ст. "Ленфильм", Советский синхронный перевод: И. Добряков) со вставками многоголосого в отдельные фрагменты, вырезанные советским кинопрокатом
Перевод #2: профессиональный (многолосый закадровый)
Русские субтитры: есть
Режиссер: Юлиуш Махульский / Juliusz Machulski
В ролях: Ян Махульский, Леонард Петрашак, Витольд Пыркош, Эва Шикульска, Кжиштоф Кершновски, Здзислав Кузьняр, Юзеф Пара, Elzbieta Zajacówna, Яцек Хмельник, Зофиа Харевич
Описание: Октябрь 1934. Знаменитый медвежатник Квинто выходит из тюрьмы. Его желание «завязать» со своим прошлым меняется при известии о смерти друга. Он решает отомстить своему бывшему сообщнику, ограбив его банк, но так, чтобы подозрение пало на самого владельца – Крамера...
Лихо закрученный, не лишенный юмора сюжет считается одной из лучших работ Ю. Махульского.


Качество: HDTVRip (Исходник - HDTV 1080i)
Формат: MKV
Видеокодек: AVC, x264 L4.1
Аудиокодек: AC3
Видео: 1024x576; 25 fps; 1900 Kbps
Аудио #1: Русский; AC3; 2 Ch; 48.0 KHz; 192 Kbps | VO (Советский синхрон, Добряков)
Аудио #2: Русский; AC3; 6 Ch; 48.0 KHz; 448 Kbps | MVO
Аудио #3: Польский; AC3; 6 Ch; 48.0 KHz; 448 Kbps | Оригинал
Субтитры #1: Русские; SRT UTF-8; Титры на перевод Добрякова
Субтитры #2: Русские; SRT UTF-8
Субтитры #3: Английские; SRT UTF-8
General
Unique ID : 202266446711797376664403770919618578287 (0x982B19C3FB84E266A5DE5A3255DF876F)
Complete name : E:\MyRazd\Vabank.1981.HDTVRip.576p.mkv
Format : Matroska
Format version : Version 2
File size : 2.19 GiB
Duration : 1h 44mn
Overall bit rate : 2 987 Kbps
Movie name : Vabank.1981.HDTVRip.576p.mkv
Encoded date : UTC 2012-05-01 09:17:39
Writing application : mkvmerge v5.4.0 ('Piper') built on Mar 10 2012 13:34:39
Writing library : libebml v1.2.3 + libmatroska v1.3.0
Video
ID : 1
Format : AVC
Format/Info : Advanced Video Codec
Format profile : High@L4.1
Format settings, CABAC : Yes
Format settings, ReFrames : 9 frames
Codec ID : V_MPEG4/ISO/AVC
Duration : 1h 44mn
Bit rate : 1 900 Kbps
Width : 1 024 pixels
Height : 576 pixels
Display aspect ratio : 16:9
Frame rate : 25.000 fps
Color space : YUV
Chroma subsampling : 4:2:0
Bit depth : 8 bits
Scan type : Progressive
Bits/(Pixel*Frame) : 0.129
Stream size : 1.35 GiB (62%)
Title : Vabank.1981
Writing library : x264 core 122 r2184 5c85e0a
Encoding settings : cabac=1 / ref=9 / deblock=1:-2:-1 / analyse=0x3:0x133 / me=umh / subme=9 / psy=1 / psy_rd=1.00:0.10 / mixed_ref=1 / me_range=24 / chroma_me=1 / trellis=2 / 8x8dct=1 / cqm=0 / deadzone=21,11 / fast_pskip=0 / chroma_qp_offset=-3 / threads=3 / sliced_threads=0 / nr=0 / decimate=0 / interlaced=0 / bluray_compat=0 / constrained_intra=0 / bframes=7 / b_pyramid=2 / b_adapt=2 / b_bias=0 / direct=3 / weightb=1 / open_gop=0 / weightp=2 / keyint=250 / keyint_min=25 / scenecut=40 / intra_refresh=0 / rc_lookahead=60 / rc=2pass / mbtree=0 / bitrate=1900 / ratetol=1.0 / qcomp=0.70 / qpmin=0 / qpmax=69 / qpstep=4 / cplxblur=20.0 / qblur=0.5 / vbv_maxrate=50000 / vbv_bufsize=50000 / nal_hrd=none / ip_ratio=1.40 / pb_ratio=1.30 / aq=1:0.90
Language : Polish
Default : Yes
Forced : No
Audio #1
ID : 2
Format : AC-3
Format/Info : Audio Coding 3
Mode extension : CM (complete main)
Codec ID : A_AC3
Duration : 1h 44mn
Bit rate mode : Constant
Bit rate : 192 Kbps
Channel(s) : 2 channels
Channel positions : Front: L R
Sampling rate : 48.0 KHz
Bit depth : 16 bits
Compression mode : Lossy
Stream size : 144 MiB (6%)
Title : VO (Советский синхрон, Добряков)
Language : Russian
Default : Yes
Forced : No
Audio #2
ID : 3
Format : AC-3
Format/Info : Audio Coding 3
Mode extension : CM (complete main)
Codec ID : A_AC3
Duration : 1h 44mn
Bit rate mode : Constant
Bit rate : 448 Kbps
Channel(s) : 6 channels
Channel positions : Front: L C R, Side: L R, LFE
Sampling rate : 48.0 KHz
Bit depth : 16 bits
Compression mode : Lossy
Stream size : 336 MiB (15%)
Title : MVO
Language : Russian
Default : No
Forced : No
Audio #3
ID : 4
Format : AC-3
Format/Info : Audio Coding 3
Mode extension : CM (complete main)
Codec ID : A_AC3
Duration : 1h 44mn
Bit rate mode : Constant
Bit rate : 448 Kbps
Channel(s) : 6 channels
Channel positions : Front: L C R, Side: L R, LFE
Sampling rate : 48.0 KHz
Bit depth : 16 bits
Compression mode : Lossy
Stream size : 336 MiB (15%)
Title : Original
Language : Polish
Default : No
Forced : No
Text #1
ID : 5
Format : UTF-8
Codec ID : S_TEXT/UTF8
Codec ID/Info : UTF-8 Plain Text
Title : Титры на перевод Добрякова
Language : Russian
Default : Yes
Forced : No
Text #2
ID : 6
Format : UTF-8
Codec ID : S_TEXT/UTF8
Codec ID/Info : UTF-8 Plain Text
Language : Russian
Default : No
Forced : No
Text #3
ID : 7
Format : UTF-8
Codec ID : S_TEXT/UTF8
Codec ID/Info : UTF-8 Plain Text
Language : English
Default : No
Forced : No
...last pass...
x264.exe: --pass 2 --bitrate 1900 --preset placebo --ref 9 --aq-strength 0.9 --deblock -2:-1 --bframes 7 --no-dct-decimate --psy-rd 1.00:0.10 --qcomp 0.70 --vbv-maxrate 50000 --vbv-bufsize 50000 --subme 9 --me umh --no-mbtree --stats "E:\Temp\0010.log" --sar 1:1 --output "E:\Temp\0010.264" "E:\Temp\0010.avs"
avs [info]: 1024x576p 1:1 @ 25/1 fps (cfr)
x264 [info]: using SAR=1/1
x264 [info]: using cpu capabilities: MMX2 SSE2Slow SlowCTZ
x264 [info]: profile High, level 4.1
x264 [info]: frame I:1058 Avg QP:16.27 size: 57744
x264 [info]: frame P:39859 Avg QP:18.67 size: 18243
x264 [info]: frame B:116037 Avg QP:20.20 size: 6056
x264 [info]: consecutive B-frames: 1.3% 1.8% 4.9% 81.2% 6.2% 3.5% 0.8% 0.3%
x264 [info]: mb I I16..4: 7.1% 78.0% 14.8%
x264 [info]: mb P I16..4: 2.0% 10.0% 1.3% P16..4: 53.3% 18.8% 11.7% 0.4% 0.1% skip: 2.5%
x264 [info]: mb B I16..4: 0.1% 0.7% 0.1% B16..8: 38.8% 7.9% 1.6% direct: 5.6% skip:45.2% L0:39.9% L1:47.0% BI:13.1%
x264 [info]: 8x8 transform intra:76.0% inter:60.3%
x264 [info]: direct mvs spatial:99.7% temporal:0.3%
x264 [info]: coded y,uvDC,uvAC intra: 81.5% 76.0% 40.1% inter: 22.2% 23.6% 7.1%
x264 [info]: i16 v,h,dc,p: 30% 10% 8% 53%
x264 [info]: i8 v,h,dc,ddl,ddr,vr,hd,vl,hu: 14% 8% 7% 9% 13% 14% 12% 12% 12%
x264 [info]: i4 v,h,dc,ddl,ddr,vr,hd,vl,hu: 15% 8% 4% 9% 15% 15% 13% 11% 11%
x264 [info]: i8c dc,h,v,p: 36% 24% 24% 16%
x264 [info]: Weighted P-Frames: Y:1.0% UV:0.5%
x264 [info]: ref P L0: 56.6% 9.3% 13.8% 6.5% 4.6% 3.6% 2.8% 1.6% 1.3% 0.1% 0.0%
x264 [info]: ref B L0: 84.2% 9.4% 2.9% 1.3% 0.9% 0.7% 0.5% 0.2%
x264 [info]: ref B L1: 97.0% 3.0%
x264 [info]: kb/s:1899.85
encoded 156954 frames, 2.17 fps, 1899.85 kb/s

Отдельная и огромная благодарность: vlaluk, Kordalan, группе с RDA за работу с звуковыми дорожками.




Скачать Ва.Банк.Vabank.(Юлиуш.Махульский).[1981.комедия.детектив.HDTVRip-AVC].[VO].(Советский.синхрон.Добряков).+.[MVO].+.[Pol].+.[Sub].(Rus.Eng).torrent без регистрации
Золото ЗОЛОТАЯ РАЗДАЧА! СКАЧАННОЕ НЕ ЗАСЧИТЫВАЕТСЯ! Золото
Дата: Зарегистрирован   [ Тип: внутренний ] Как тут cкачать?
MAGNET ссылка
MAGNET ссылка


Скачать .torrent

11 KB

Статус: проверено DHT
Скачан: торрент - 157 раз, раздача полностью - 66 раз
Размер: 2,19 GB
Оценка:  4,5 (Голосов: 2)
Поблагодарили: 3
Поделиться ссылкой на эту раздачу с друзьями:
В контактеFacebookОдноклассникиTwitterLivejournalМой МирLiveinternet
 

 
Показать сообщения:    


Вы не можете начинать темы
Вы не можете отвечать на сообщения
Вы не можете редактировать свои сообщения
Вы не можете удалять свои сообщения
Вы не можете голосовать в опросах
Вы не можете прикреплять файлы к сообщениям
Вы можете скачивать файлы