Loading...
Error

Скачать Жажда смерти / Death Wish (Майкл Уиннер) [1974, триллер, DVDRip-AVC] [AVO] [Михалев] + [MVO] + [Sub Rus] + [Original Eng] торрент без регистрации

 
Статистика раздачи
Размер:  1,45 GB   |    Скачан:  147 раз
Сидов:  1  [  0 KB/s  ]  
 
Автор Сообщение

leon030982

[] 

Жажда смерти / Death Wish
Страна: США
Жанр: триллер
Год выпуска: 1974
Продолжительность: 01:33:29
Перевод 1: Авторский (одноголосый закадровый) Михалев
Перевод 2: Профессиональный (многоголосый закадровый)
Cубтитры: русские
Оригинальная аудиодорожка: английский
Режиссер: Майкл Уиннер /Michael Winner

В ролях: Чарлз Бронсон /Charles Bronson/, Хоуп Лэнг /Hope Lange/, Винсент Гардениа /Vincent Gardenia/, Джефф Голдблюм /Jeff Goldblum/, Уильям Редфилд /William Redfield/, Стюарт Марголин /Stewart Margolin/, Стивен Китс /Steven Keats

Описание: Снят по одноимённому произведению Брайена Гарфилда. Семья нью-йорского архитектора Пола Керси подвергается нападению банды уличных подонков грабителей. Керси теряет самое дорогое в жизни в тот момент, когда кажется, что все так прекрасно. Он не может смириться и сама судьба толкает его на путь безжалостного убийцы-мстителя. Для него не будет другого закона и правосудия, кроме его собственного...

Неувядающий шедевр и классика жанра в исполнении Чарльза Бронсона.

Сэмпл: http://multi-up.com/697690
Качество видео: DVDRip-AVC
Формат видео: MKV
Видео: 708x480@840x480 (1.75:1), 23,976 fps, AVC (H.264) ~1394 kbps avg, 0.171 bit/pixel
Аудио 1: Russian (48 kHz, Dolby AC3, 2 ch, 192 kbps) (авторский Михалев)
Аудио 2: Russian (48 kHz, Dolby AC3, 6 ch, 448 kbps) (многоголосый)
Аудио 3: English (48 kHz, Dolby AC3, 2 ch, 192 kbps) (оригинал)
Формат субтитров: softsub (SRT)
Общее
Уникальный идентификатор : 243131184391951134447528568496866237046 (0xB6E95CE34F6D42C7AEB989F695889A76)
Полное имя : D:\КИНО\Жажда смерти.mkv
Формат : Matroska
Версия формата : Version 2
Размер файла : 1,45 Гбайт
Продолжительность : 1 ч. 33 м.
Общий поток : 2228 Кбит/сек
Дата кодирования : UTC 2012-05-05 10:30:34
Программа кодирования : mkvmerge v5.2.1 ('A Far Off Place') built on Jan 2 2012 23:21:10
Библиотека кодирования : libebml v1.2.3 + libmatroska v1.3.0
Видео
Идентификатор : 1
Формат : AVC
Формат/Информация : Advanced Video Codec
Профиль формата : High@L4.1
Параметр CABAC формата : Да
Параметр ReFrames формата : 16 кадров
Идентификатор кодека : V_MPEG4/ISO/AVC
Продолжительность : 1 ч. 33 м.
Битрейт : 1394 Кбит/сек
Ширина : 708 пикселей
Высота : 480 пикселей
Соотношение сторон : 16:9
Частота кадров : 23,976 кадра/сек
Цветовое пространство : YUV
Субдискретизация насыщенности : 4:2:0
Битовая глубина : 8 бит
Тип развёртки : Прогрессивная
Бит/(Пиксели*Кадры) : 0.171
Размер потока : 904 Мбайт (61%)
Библиотека кодирования : x264 core 120 r2164 da19765
Настройки программы : cabac=1 / ref=16 / deblock=1:-2:-1 / analyse=0x3:0x133 / me=umh / subme=10 / psy=1 / psy_rd=1.00:0.10 / mixed_ref=1 / me_range=24 / chroma_me=1 / trellis=2 / 8x8dct=1 / cqm=0 / deadzone=21,11 / fast_pskip=1 / chroma_qp_offset=-3 / threads=3 / sliced_threads=0 / nr=0 / decimate=1 / interlaced=0 / bluray_compat=0 / constrained_intra=0 / bframes=8 / b_pyramid=0 / b_adapt=2 / b_bias=0 / direct=3 / weightb=1 / open_gop=0 / weightp=2 / keyint=240 / keyint_min=23 / scenecut=40 / intra_refresh=0 / rc_lookahead=60 / rc=2pass / mbtree=1 / bitrate=1394 / ratetol=1.0 / qcomp=0.60 / qpmin=10 / qpmax=51 / qpstep=4 / cplxblur=20.0 / qblur=0.5 / vbv_maxrate=50000 / vbv_bufsize=50000 / nal_hrd=none / ip_ratio=1.40 / aq=1:1.00
Default : Да
Forced : Нет
Аудио #1
Идентификатор : 2
Формат : AC-3
Формат/Информация : Audio Coding 3
Расширение режима : CM (complete main)
Идентификатор кодека : A_AC3
Продолжительность : 1 ч. 33 м.
Вид битрейта : Постоянный
Битрейт : 192 Кбит/сек
Каналы : 2 канала
Расположение каналов : Front: L R
Частота : 48,0 КГц
Битовая глубина : 16 бит
Метод сжатия : С потерями
Размер потока : 128 Мбайт (9%)
Язык : Russian
Default : Да
Forced : Нет
Аудио #2
Идентификатор : 3
Формат : AC-3
Формат/Информация : Audio Coding 3
Расширение режима : CM (complete main)
Идентификатор кодека : A_AC3
Продолжительность : 1 ч. 33 м.
Вид битрейта : Постоянный
Битрейт : 448 Кбит/сек
Каналы : 6 каналов
Расположение каналов : Front: L C R, Side: L R, LFE
Частота : 48,0 КГц
Битовая глубина : 16 бит
Метод сжатия : С потерями
Размер потока : 300 Мбайт (20%)
Язык : Russian
Default : Нет
Forced : Нет
Аудио #3
Идентификатор : 4
Формат : AC-3
Формат/Информация : Audio Coding 3
Расширение режима : CM (complete main)
Идентификатор кодека : A_AC3
Продолжительность : 1 ч. 33 м.
Вид битрейта : Постоянный
Битрейт : 192 Кбит/сек
Каналы : 2 канала
Расположение каналов : Front: L R
Частота : 48,0 КГц
Битовая глубина : 16 бит
Метод сжатия : С потерями
Размер потока : 128 Мбайт (9%)
Язык : English
Default : Нет
Forced : Нет
Текст
Идентификатор : 5
Формат : UTF-8
Идентификатор кодека : S_TEXT/UTF8
Идентификатор кодека/Информация : UTF-8 Plain Text
Язык : Russian
Default : Нет
Forced : Нет



Скачать Жажда.смерти.Death.Wish.(Майкл.Уиннер).[1974.триллер.DVDRip-AVC].[AVO].[Михалев].+.[MVO].+.[Sub.Rus].+.[Original.Eng].torrent без регистрации
Золото ЗОЛОТАЯ РАЗДАЧА! СКАЧАННОЕ НЕ ЗАСЧИТЫВАЕТСЯ! Золото
Дата: Зарегистрирован   [ Тип: внутренний ] Как тут cкачать?
MAGNET ссылка
MAGNET ссылка


Скачать .torrent

15 KB

Статус: проверено DHT
Скачан: торрент - 147 раз, раздача полностью - 15 раз
Размер: 1,45 GB
Оценка:  - (Голосов: 0)
Поблагодарили: 0
Поделиться ссылкой на эту раздачу с друзьями:
В контактеFacebookОдноклассникиTwitterLivejournalМой МирLiveinternet
 

 
Показать сообщения:    


Вы не можете начинать темы
Вы не можете отвечать на сообщения
Вы не можете редактировать свои сообщения
Вы не можете удалять свои сообщения
Вы не можете голосовать в опросах
Вы не можете прикреплять файлы к сообщениям
Вы можете скачивать файлы