Loading...
Error

Скачать Карты, деньги, два ствола / Lock, Stock and Two Smoking Barrels (Гай Ричи) [1998, триллер, криминал, HDRip] [MVO] + [AVO] торрент без регистрации

 
Статистика раздачи
Размер:  1,75 GB   |    Скачан:  194 раза

Полного источника не было: 26 минут

 
Автор Сообщение

leon030982

[] 

Карты, деньги, два ствола
Lock, Stock and Two Smoking Barrels
Страна: Великобритания
Жанр: триллер, криминал
Год выпуска: 1998
Продолжительность: 01:47:23
Перевод #1: Профессиональный (многоголосый закадровый) (Киномания)
Перевод #2: Авторский (одноголосый закадровый) (Гоблин) (отдельно)
Cубтитры: нет
Режиссер: Гай Ричи / Guy Ritchie
В ролях:
Джейсон Стэйтем
Ник Моран
Джейсон Флеминг
Декстер Флетчер
Винни Джонс
Стинг
Стивен Макинтош
Николас Роу
Ник Марк
Чарльз Форбс
...

Описание:
Четверо молодых парней накопили каждый по 25 тысяч фунтов, чтобы один из них мог сыграть в карты с опытным шулером и матерым преступником, известным по кличке Гарри-Топор. Парень в итоге проиграл 500 тысяч, на уплату долга ему дали неделю.
В противном случае и ему и его «спонсорам» каждый день будут отрубать по пальцу, а потом… Чтобы выйти из положения, ребята решили ограбить бандитов, решивших ограбить трех «ботаников», выращивающих марихуану для местного наркобарона. Но на этом приключения четверки не заканчиваются…


Качество видео: HDRip / Исходник: Lock, Stock and Two Smoking Barrels(1998)720p-F.HD
Формат видео: AVI
Видео: DivX, 720 x 392, 1556 kbps, 23.976 fps
Аудио 1: AC-3, 6ch (Front: L C R, Side: L R, LFE), 384 kbps, 48 kHz (Киномания)
Аудио 2: AC-3, 6ch (Front: L C R, Side: L R, LFE), 384 kbps, 48 kHz (Гоблин) (отдельно)
Общее
Полное имя : H:\Lock, Stock and Two Smoking Barrels\Lock, Stock and Two Smoking Barrels .avi
Формат : AVI
Формат/Информация : Audio Video Interleave
Размер файла : 1,46 Гбайт
Продолжительность : 1 ч. 47 м.
Общий поток : 1949 Кбит/сек
Программа кодирования : VirtualDubMod 1.5.10.3 | www.virtualdub-fr.org || (build 2550/release)
Библиотека кодирования : VirtualDubMod build 2550/release
Видео
Идентификатор : 0
Формат : MPEG-4 Visual
Профиль формата : Advanced Simple@L5
Параметр BVOP формата : 1
Параметр QPel формата : Нет
Параметр GMC формата : Без точки перехода
Параметр матрицы формата : Выборочная
Идентификатор кодека : DX50
Идентификатор кодека/Подсказка : DivX 5
Продолжительность : 1 ч. 47 м.
Битрейт : 1556 Кбит/сек
Ширина : 720 пикселей
Высота : 392 пикселя
Соотношение сторон : 1,85:1
Частота кадров : 23,976 кадра/сек
Цветовое пространство : YUV
Субдискретизация насыщенности : 4:2:0
Битовая глубина : 8 бит
Тип развёртки : Прогрессивная
Метод сжатия : С потерями
Бит/(Пиксели*Кадры) : 0.230
Размер потока : 1,17 Гбайт (80%)
Библиотека кодирования : XviD 1.2.1 (UTC 2008-12-04)
Аудио
Идентификатор : 1
Формат : AC-3
Формат/Информация : Audio Coding 3
Расширение режима : CM (complete main)
Параметр Endianness формата : Big
Идентификатор кодека : 2000
Продолжительность : 1 ч. 47 м.
Вид битрейта : Постоянный
Битрейт : 384 Кбит/сек
Каналы : 6 каналов
Расположение каналов : Front: L C R, Side: L R, LFE
Частота : 48,0 КГц
Битовая глубина : 16 бит
Метод сжатия : С потерями
Размер потока : 295 Мбайт (20%)
Выравнивание : Разделение по промежуткам
Продолжительность промежутка : 42 мс. (1,00 видеокадр)
Время предзагрузки промежутка : 500 мс.



Скачать Карты.деньги.два.ствола.Lock.Stock.and.Two.Smoking.Barrels.(Гай.Ричи).[1998.триллер.криминал.HDRip].[MVO].+.[AVO].torrent без регистрации
Золото ЗОЛОТАЯ РАЗДАЧА! СКАЧАННОЕ НЕ ЗАСЧИТЫВАЕТСЯ! Золото
Дата: Зарегистрирован   [ Тип: внутренний ] Как тут cкачать?
MAGNET ссылка
MAGNET ссылка


Скачать .torrent

18 KB

Статус: проверено DHT
Скачан: торрент - 194 раз, раздача полностью - 37 раз
Размер: 1,75 GB
Оценка:  - (Голосов: 0)
Поблагодарили: 0
Поделиться ссылкой на эту раздачу с друзьями:
В контактеFacebookОдноклассникиTwitterLivejournalМой МирLiveinternet
 

 
Показать сообщения:    


Вы не можете начинать темы
Вы не можете отвечать на сообщения
Вы не можете редактировать свои сообщения
Вы не можете удалять свои сообщения
Вы не можете голосовать в опросах
Вы не можете прикреплять файлы к сообщениям
Вы можете скачивать файлы