Loading...
Error

Скачать Темная сторона / Underbelly / (Полный 1-ый сезон) (Тони Тилс ) [2008, криминал, драма, BDRip] [720p] [MVO] (Fox Crime) + [sub eng] + [Original] торрент без регистрации

 
Статистика раздачи
Размер:  29,13 GB   |    Скачан:  133 раза
Сидов:  1  [  0 KB/s  ]  
 
Автор Сообщение

leon030982

[] 

Темная сторона / Underbelly
Год выпуска: 2008
Страна: Австралия
Жанр: криминал, драма
Продолжительность: ~00:43:00
Перевод: Профессиональный многоголосый закадровый Fox Crime
Русские субтитры: нет
Субтитры: английские
Режиссёр: Тони Тилс / Tony Tilse
В ролях: Кэролайн Крэйг, Rodger Corser, Гайтон Грантли, Кэт Стюарт, Фрэнки Дж. Холден, Рой Биллинг, Анна Хатчинсон, Ашер Кедди, Мэттью Ньютон, Питер Фелпс

Описание: Сериал «Темная сторона» основан на реальных событиях, происходивших в Мельбурне (Австралия) между 1995-м и 2004-м годами. Это история гангстерских разборок между соперничавшими группировками криминального мира Мельбурна. В центре внимания — жестокая война между двумя бандами и еще более серьезная моральная война между бандами и оперативной группой Purana, на фоне которых разворачивается сложная паутина личных историй и отношений — иногда трогательных, но всегда удивительных и захватывающих.



Сэмпл: http://multi-up.com/609049
Качество: BDRip
Формат: MKV
Видео кодек: H.264
Аудио кодек: AC3
Видео: 1280x720 (16:9), 25.00 fps, ~6500 kbps, 0.293 bit/pixel
Аудио: AC3 ,2/0 (L,R) ch ,48 kHz ,192.00 kbps Fox Crime
Аудио 2: 48 kHz, AC3 Dolby Digital, 3/2 (L,C,R,l,r) + LFE ch, ~640.00 kbps avg original
01 СЕЗОН.BluRay 720p-lord_i_74\01 СЕРИЯ.mkv
Формат : Matroska
Версия формата : Version 2
Размер файла : 2,24 Гбайт
Продолжительность : 42 м.
Общий поток : 7577 Кбит/сек
Дата кодирования : UTC 2011-11-24 15:38:13
Программа кодирования : mkvmerge v5.0.1 ('Es ist Sommer') built on Oct 9 2011 11:55:43
Библиотека кодирования : libebml v1.2.2 + libmatroska v1.3.0
Видео
Идентификатор : 1
Формат : AVC
Формат/Информация : Advanced Video Codec
Профиль формата : High@L4.1
Параметр CABAC формата : Да
Параметр ReFrames формата : 5 кадров
Идентификатор кодека : V_MPEG4/ISO/AVC
Продолжительность : 42 м.
Битрейт : 6746 Кбит/сек
Ширина : 1280 пикс.
Высота : 720 пикс.
Соотношение сторон : 16:9
Частота кадров : 25,000 кадр/сек
Цветовое пространство : YUV
Подвыборка цветности : 4:2:0
Битовая глубина : 8 бит
Тип развёртки : Прогрессивная
Бит/(Пиксели*Кадры) : 0.293
Размер потока : 1,95 Гбайт (87%)
Библиотека кодирования : x264 core 104 r1688 0b36c6d
Настройки программы : cabac=1 / ref=5 / deblock=1:0:0 / analyse=0x3:0x133 / me=umh / subme=8 / psy=1 / psy_rd=1.00:0.00 / mixed_ref=1 / me_range=16 / chroma_me=1 / trellis=1 / 8x8dct=1 / cqm=0 / deadzone=21,11 / fast_pskip=0 / chroma_qp_offset=-2 / threads=6 / sliced_threads=0 / nr=0 / decimate=1 / interlaced=0 / constrained_intra=0 / bframes=3 / b_pyramid=2 / b_adapt=1 / b_bias=0 / direct=1 / weightb=1 / open_gop=0 / weightp=2 / keyint=250 / keyint_min=25 / scenecut=40 / intra_refresh=0 / rc_lookahead=40 / rc=2pass / mbtree=1 / bitrate=6746 / ratetol=1.0 / qcomp=0.60 / qpmin=10 / qpmax=51 / qpstep=4 / cplxblur=20.0 / qblur=0.5 / ip_ratio=1.40 / aq=1:1.00
Язык : English
Аудио #1
Идентификатор : 2
Формат : AC-3
Формат/Информация : Audio Coding 3
Расширение режима : CM (complete main)
Идентификатор кодека : A_AC3
Продолжительность : 42 м.
Вид битрейта : Постоянный
Битрейт : 192 Кбит/сек
Каналы : 2 канала
Расположение каналов : Front: L R
Частота : 48,0 КГц
Битовая глубина : 16 бит
Метод сжатия : С потерями
Размер потока : 58,1 Мбайт (3%)
Заголовок : MVO
Язык : Russian
Аудио #2
Идентификатор : 3
Формат : AC-3
Формат/Информация : Audio Coding 3
Расширение режима : CM (complete main)
Идентификатор кодека : A_AC3
Продолжительность : 42 м.
Вид битрейта : Постоянный
Битрейт : 640 Кбит/сек
Каналы : 6 каналов
Расположение каналов : Front: L C R, Side: L R, LFE
Частота : 48,0 КГц
Битовая глубина : 16 бит
Метод сжатия : С потерями
Размер потока : 194 Мбайт (8%)
Текст
Идентификатор : 4
Формат : UTF-8
Идентификатор кодека : S_TEXT/UTF8
Идентификатор кодека/Информация : UTF-8 Plain Text
Заголовок : SUB
Язык : English



Скачать Темная.сторона.Underbelly.(Полный.1-ый.сезон).(Тони.Тилс.).[2008.криминал.драма.BDRip].[720p].[MVO].(Fox.Crime).+.[sub.eng].+.[Original].torrent без регистрации
Золото ЗОЛОТАЯ РАЗДАЧА! СКАЧАННОЕ НЕ ЗАСЧИТЫВАЕТСЯ! Золото
Дата: Зарегистрирован   [ Тип: внутренний ] Как тут cкачать?
MAGNET ссылка
MAGNET ссылка


Скачать .torrent

147 KB

Статус: проверено DHT
Скачан: торрент - 133 раз, раздача полностью - 4 раз
Размер: 29,13 GB
Оценка:  - (Голосов: 0)
Поблагодарили: 2
Поделиться ссылкой на эту раздачу с друзьями:
В контактеFacebookОдноклассникиTwitterLivejournalМой МирLiveinternet
 

 
Показать сообщения:    


Вы не можете начинать темы
Вы не можете отвечать на сообщения
Вы не можете редактировать свои сообщения
Вы не можете удалять свои сообщения
Вы не можете голосовать в опросах
Вы не можете прикреплять файлы к сообщениям
Вы можете скачивать файлы