Loading...
Error

Скачать (Hard House, Progressive House) Zini & Kantini - Kick Ass! - 2000, FLAC (tracks+.cue), lossless торрент без регистрации

 
Статистика раздачи
Размер:  227 MB   |    Скачан:  166 раз
Сидов:  1  [  0 KB/s  ]  
 
Автор Сообщение

Dr_Shmurge

[] 

Zini & Kantini - Kick Ass!
Жанр: Hard House, Progressive House
Страна-производитель диска: Netherlands
Год издания: 2000
Издатель (лейбл): Le Club Records
Номер по каталогу: LCR 0115-3
Аудиокодек: FLAC (*.flac)
Тип рипа: tracks+.cue
Битрейт аудио: lossless
Продолжительность: 00:33:22
Источник (релизер): Собственный CD
Наличие сканов в содержимом раздачи: да
Треклист:
01. Kick Ass! (Original Club Edit) (3:20)
02. Kick Ass! (Clubwatchers Single Edit) (3:20)
03. Kick Ass! (Groovaholics Single Edit) (3:38)
04. Kick Ass! (Original Club Mix) (5:33)
05. Kick Ass! (Clubwatchers Remix) (6:07)
06. Kick Ass! (Groovaholics Remix) (5:53)
07. Kick Ass! (UK Remix) (5:31)
Exact Audio Copy V1.0 beta 3 from 29. August 2011
EAC extraction logfile from 6. May 2012, 0:50
Zini & Kantini / Kick Ass!
Used drive : Optiarc DVD RW AD-7243S Adapter: 1 ID: 0
Read mode : Secure
Utilize accurate stream : Yes
Defeat audio cache : Yes
Make use of C2 pointers : No
Read offset correction : 48
Overread into Lead-In and Lead-Out : No
Fill up missing offset samples with silence : Yes
Delete leading and trailing silent blocks : No
Null samples used in CRC calculations : Yes
Used interface : Native Win32 interface for Win NT & 2000
Gap handling : Appended to previous track
Used output format : User Defined Encoder
Selected bitrate : 1024 kBit/s
Quality : High
Add ID3 tag : No
Command line compressor : C:\Program Files\Exact Audio Copy\Flac\flac.exe
Additional command line options : -V -8 -T "Genre=%genre%" -T "Artist=%artist%" -T "Title=%title%" -T "Album=%albumtitle%" -T "Date=%year%" -T "Tracknumber=%tracknr%" -T "Comment=%comment%" %source%
TOC of the extracted CD
Track | Start | Length | Start sector | End sector
---------------------------------------------------------
1 | 0:00.00 | 3:20.52 | 0 | 15051
2 | 3:20.52 | 3:20.48 | 15052 | 30099
3 | 6:41.25 | 3:38.08 | 30100 | 46457
4 | 10:19.33 | 5:33.48 | 46458 | 71480
5 | 15:53.06 | 6:07.66 | 71481 | 99071
6 | 22:00.72 | 5:53.74 | 99072 | 125620
7 | 27:54.71 | 5:31.20 | 125621 | 150465
Track 1
Filename C:\01. Zini & Kantini - Kick Ass! (Original Club Edit).wav
Pre-gap length 0:00:02.00
Peak level 100.0 %
Extraction speed 2.2 X
Track quality 100.0 %
Test CRC 055B3DA0
Copy CRC 055B3DA0
Track not present in AccurateRip database
Copy OK
Track 2
Filename C:\02. Zini & Kantini - Kick Ass! (Clubwatchers Single Edit).wav
Pre-gap length 0:00:02.00
Peak level 100.0 %
Extraction speed 2.4 X
Track quality 100.0 %
Test CRC 4D0EAB16
Copy CRC 4D0EAB16
Track not present in AccurateRip database
Copy OK
Track 3
Filename C:\03. Zini & Kantini - Kick Ass! (Groovaholics Single Edit).wav
Pre-gap length 0:00:02.00
Peak level 100.0 %
Extraction speed 2.3 X
Track quality 99.9 %
Test CRC 0B081DB7
Copy CRC 0B081DB7
Track not present in AccurateRip database
Copy OK
Track 4
Filename C:\04. Zini & Kantini - Kick Ass! (Original Club Mix).wav
Pre-gap length 0:00:02.00
Peak level 100.0 %
Extraction speed 2.8 X
Track quality 99.9 %
Test CRC 732924F9
Copy CRC 732924F9
Track not present in AccurateRip database
Copy OK
Track 5
Filename C:\05. Zini & Kantini - Kick Ass! (Clubwatchers Remix).wav
Pre-gap length 0:00:02.00
Peak level 100.0 %
Extraction speed 3.4 X
Track quality 100.0 %
Test CRC 565D7243
Copy CRC 565D7243
Track not present in AccurateRip database
Copy OK
Track 6
Filename C:\06. Zini & Kantini - Kick Ass! (Groovaholics Remix).wav
Pre-gap length 0:00:02.00
Peak level 100.0 %
Extraction speed 3.7 X
Track quality 100.0 %
Test CRC 407B2185
Copy CRC 407B2185
Track not present in AccurateRip database
Copy OK
Track 7
Filename C:\07. Zini & Kantini - Kick Ass! (UK Remix).wav
Pre-gap length 0:00:02.00
Peak level 100.0 %
Extraction speed 3.9 X
Track quality 100.0 %
Test CRC E65270CC
Copy CRC E65270CC
Track not present in AccurateRip database
Copy OK
None of the tracks are present in the AccurateRip database
No errors occurred
End of status report
---- CUETools DB Plugin V2.1.3
[CTDB TOCID: VRZcj9nQLnhReChtYnHgfMKcuqc-] disk not present in database, Submit result: VRZcj9nQLnhReChtYnHgfMKcuqc- has been uploaded
==== Log checksum CD65C5456BB32053A568373C806691A77240F9B528873B1E8BBCAE65786A8881 ====
REM DATE 2000
REM DISCID 4507D607
REM COMMENT "ExactAudioCopy v1.0b3"
PERFORMER "Zini & Kantini"
TITLE "Kick Ass!"
FILE "01. Zini & Kantini - Kick Ass! (Original Club Edit).wav" WAVE
TRACK 01 AUDIO
TITLE "Kick Ass! (Original Club Edit)"
PERFORMER "Zini & Kantini"
INDEX 01 00:00:00
TRACK 02 AUDIO
TITLE "Kick Ass! (Clubwatchers Single Edit)"
PERFORMER "Zini & Kantini"
INDEX 00 03:18:52
FILE "02. Zini & Kantini - Kick Ass! (Clubwatchers Single Edit).wav" WAVE
INDEX 01 00:00:00
TRACK 03 AUDIO
TITLE "Kick Ass! (Groovaholics Single Edit)"
PERFORMER "Zini & Kantini"
INDEX 00 03:18:48
FILE "03. Zini & Kantini - Kick Ass! (Groovaholics Single Edit).wav" WAVE
INDEX 01 00:00:00
TRACK 04 AUDIO
TITLE "Kick Ass! (Original Club Mix)"
PERFORMER "Zini & Kantini"
INDEX 00 03:36:08
FILE "04. Zini & Kantini - Kick Ass! (Original Club Mix).wav" WAVE
INDEX 01 00:00:00
TRACK 05 AUDIO
TITLE "Kick Ass! (Clubwatchers Remix)"
PERFORMER "Zini & Kantini"
INDEX 00 05:31:48
FILE "05. Zini & Kantini - Kick Ass! (Clubwatchers Remix).wav" WAVE
INDEX 01 00:00:00
TRACK 06 AUDIO
TITLE "Kick Ass! (Groovaholics Remix)"
PERFORMER "Zini & Kantini"
INDEX 00 06:05:66
FILE "06. Zini & Kantini - Kick Ass! (Groovaholics Remix).wav" WAVE
INDEX 01 00:00:00
TRACK 07 AUDIO
TITLE "Kick Ass! (UK Remix)"
PERFORMER "Zini & Kantini"
INDEX 00 05:51:74
FILE "07. Zini & Kantini - Kick Ass! (UK Remix).wav" WAVE
INDEX 01 00:00:00
AUDIOCHECKER v2.0 beta (build 457) - by Dester - opdester@freemail.hu
~~~~~~~~~~~~~~~~~~~~~~~~~~~~~~~~~~
-=== DO NOT EDIT THIS FILE! ===-
Path: ...\Zini & Kantini - Kick Ass!
1 -=- 01. Zini & Kantini - Kick Ass! (Original Club Edit).flac -=- CDDA (100%)
2 -=- 02. Zini & Kantini - Kick Ass! (Clubwatchers Single Edit).flac -=- CDDA (100%)
3 -=- 03. Zini & Kantini - Kick Ass! (Groovaholics Single Edit).flac -=- CDDA (100%)
4 -=- 04. Zini & Kantini - Kick Ass! (Original Club Mix).flac -=- CDDA (100%)
5 -=- 05. Zini & Kantini - Kick Ass! (Clubwatchers Remix).flac -=- CDDA (99%)
6 -=- 06. Zini & Kantini - Kick Ass! (Groovaholics Remix).flac -=- CDDA (100%)
7 -=- 07. Zini & Kantini - Kick Ass! (UK Remix).flac -=- CDDA (100%)
Summary 99,86% CDDA
66407172



Скачать Zini.&.Kantini.-.Kick.Ass!.-.2000.FLAC.(tracks+.cue).lossless.torrent без регистрации
Золото ЗОЛОТАЯ РАЗДАЧА! СКАЧАННОЕ НЕ ЗАСЧИТЫВАЕТСЯ! Золото
Дата: Зарегистрирован   [ Тип: внутренний ] Как тут cкачать?
MAGNET ссылка
MAGNET ссылка


Скачать .torrent

19 KB

Статус: проверено DHT
Скачан: торрент - 166 раз, раздача полностью - 2 раз
Размер: 227 MB
Оценка:  - (Голосов: 0)
Поблагодарили: 0
Поделиться ссылкой на эту раздачу с друзьями:
В контактеFacebookОдноклассникиTwitterLivejournalМой МирLiveinternet
 

 
Показать сообщения:    


Вы не можете начинать темы
Вы не можете отвечать на сообщения
Вы не можете редактировать свои сообщения
Вы не можете удалять свои сообщения
Вы не можете голосовать в опросах
Вы не можете прикреплять файлы к сообщениям
Вы можете скачивать файлы