Loading...
Error

Скачать Святые мученики проклятых / Saints Martyrs des Damnes (Робин Обер) [2005, триллер, драма, фантастика, детектив, DVDRip] [VO (Гундос)] торрент без регистрации

 
Статистика раздачи
Размер:  1,36 GB   |    Скачан:  149 раз
Сидов:  1  [  0 KB/s  ]  
 
Автор Сообщение

boоmbee

[] 

Святые мученики проклятых / Saints Martyrs des Damnes
Страна: Канада
Жанр: триллер, драма, фантастика, детектив
Год выпуска: 2005
Продолжительность: 01:56:53
Перевод: Одноголосый закадровый - Гундос по субтитрам tROXXY
Cубтитры: нет
Режиссер: Робин Обер / Robin Aubert
В ролях: Изабель Блэ, Сильви Бучер, Франсуа Шенье, Пьер Коллин, Мишель Форге, Карл Хеннеберт-Фолкнер, Жермен Уд, Рено Ласелль-Бурдо, Андре Лакосте, Матильда Лавин
Описание: Двое репортёров мелкой жёлтой газетёнки отправляются в деревню, в которой таинственным образом пропадают люди. Расположившись в гостинице, один из них отправляется фотографировать, а другой перекусить в местную забегаловку. В итоге первый пропадает, а со вторым местные жители ведут себя так, будто бы его здесь никогда не было и лучше бы ему и не быть совсем. Понимая, что здесь действительно происходит что-то из ряда вон выходящее он начинает пытаться во всём разобраться...

Качество видео: DVDRip
Формат видео: AVI
Видео: 720x320 (2.25:1), 23.976 fps, XviD MPEG-4 ~1468 kbps avg, 0.27 bit/pixel
Аудио: 48 kHz, AC3 Dolby Digital, 2/0 (L,R) ch, ~192.00 kbps avg
Формат : AVI
Формат/Информация : Audio Video Interleave
Размер файла : 1,36 Гбайт
Продолжительность : 1 ч. 56 м.
Общий поток : 1669 Кбит/сек
Режиссёр : озвучка: Гундос
Программа кодирования : VirtualDubMod 1.5.10.1 (build 2366/release)
Примечание : релиз http://asiamorte.com
Видео
Идентификатор : 0
Формат : MPEG-4 Visual
Профиль формата : Advanced Simple@L5
Параметр BVOP формата : 1
Параметр QPel формата : Нет
Параметр GMC формата : Без точки перехода
Параметр матрицы формата : Default (H.263)
Режим смешивания : Сжатый битовый поток
Идентификатор кодека : XVID
Идентификатор кодека/Подсказка : XviD
Продолжительность : 1 ч. 56 м.
Битрейт : 1468 Кбит/сек
Ширина : 720 пикселей
Высота : 320 пикселей
Соотношение сторон : 2,25:1
Частота кадров : 23,976 кадра/сек
Цветовое пространство : YUV
Субдискретизация насыщенности : 4:2:0
Битовая глубина : 8 бит
Тип развёртки : Прогрессивная
Метод сжатия : С потерями
Бит/(Пиксели*Кадры) : 0.266
Размер потока : 1,20 Гбайт (88%)
Библиотека кодирования : XviD 1.2.0.dev47 (UTC 2006-11-01)
Аудио
Идентификатор : 1
Формат : AC-3
Формат/Информация : Audio Coding 3
Расширение режима : CM (complete main)
Параметр Endianness формата : Big
Идентификатор кодека : 2000
Продолжительность : 1 ч. 56 м.
Вид битрейта : Постоянный
Битрейт : 192 Кбит/сек
Каналы : 2 канала
Расположение каналов : Front: L R
Частота : 48,0 КГц
Битовая глубина : 16 бит
Метод сжатия : С потерями
Размер потока : 161 Мбайт (12%)
Выравнивание : Разделение по промежуткам
Продолжительность промежутка : 42 мс. (1,00 видеокадр)
Время предзагрузки промежутка : 500 мс.



Скачать Святые.мученики.проклятых.Saints.Martyrs.des.Damnes.(Робин.Обер).[2005.триллер.драма.фантастика.детектив.DVDRip].[VO.(Гундос)].torrent без регистрации
Золото ЗОЛОТАЯ РАЗДАЧА! СКАЧАННОЕ НЕ ЗАСЧИТЫВАЕТСЯ! Золото
Дата: Зарегистрирован   [ Тип: внутренний ] Как тут cкачать?
MAGNET ссылка
MAGNET ссылка


Скачать .torrent

14 KB

Статус: проверено DHT
Скачан: торрент - 149 раз, раздача полностью - 163 раз
Размер: 1,36 GB
Оценка:  4 (Голосов: 1)
Поблагодарили: 4
Поделиться ссылкой на эту раздачу с друзьями:
В контактеFacebookОдноклассникиTwitterLivejournalМой МирLiveinternet
 

 

boоmbee

[] 

ужас с сиськами на блюдце
 

[] 

Топик был перенесен из форума Фильмы 2012 года в форум Фильмы 2005-2008 года

МихаНЕзатор
 
Показать сообщения:    


Вы не можете начинать темы
Вы не можете отвечать на сообщения
Вы не можете редактировать свои сообщения
Вы не можете удалять свои сообщения
Вы не можете голосовать в опросах
Вы не можете прикреплять файлы к сообщениям
Вы можете скачивать файлы