Loading...
Error

Скачать Двое бродяг / Odete / Two Drifters (Джоао Педро Родригез) [2005 г., драма, гей-тема, DVDRip-AVC] [VO] торрент без регистрации

 
Статистика раздачи
Размер:  1,46 GB   |    Скачан:  150 раз
Сидов:  1  [  0 KB/s  ]  
 
Автор Сообщение

boоmbee

[] 

Двое бродяг / Odete / Two Drifters

Страна: Португалия
Жанр: Драма
Год выпуска: 2005
Продолжительность: 01:37:22
Перевод: Одноголосый закадровый

Режиссер: Джоао Педро Родригез / Joao Pedro Rodrigues

В ролях: Ана Кристина де Оливейра / Ana Cristina de Oliveira, Нуно Джил / Nuno Gil, Джоао Каррейра / Joao Carreira), Тереза Мадруга / Teresa Madruga, Карлото Котта / Carloto Cotta и др.

Описание: Фильм о молодом и мужественном парне, которые потерял бойфренда в день годовщины их знакомства. Фильм начинается с прощания между студентом по имени Педро и его бойфрендом Руи. Руи надо идти на работу, но вечером они собираются отметить годовщину их знакомства. Педро садится в машину и уезжает... только затем, чтобы через несколько минут погибнуть в аварии. А тем временем соседка Педро по этажу и его подруга Одетта объявляет своему бойфренду Альберто, что хочет от него ребенка. Альберто против и Одетта выгоняет его и остается одна со своей депрессией. Одетта ждет утра, чтобы поговорить с Педро, еще не зная, что он погиб.
Английское название фильма "Два бродяги" взято из песни "Moon River" и выражает отношения Педро и Руи.

Качество видео: DVDRip-AVC
Формат видео: MKV
Видео кодек: x264
Аудио кодек: AC3 Dolby Digital
Видео: 720x560 [anamorph 1017x560]; 25 fps; ~1953 kbpsl
Аудио: AC3; 48 kHz; Stereo; 192 kbps
СЭМПЛ
Общее
Общее
Полное имя : Odete (2005) K_I (1).mkv
Формат : Matroska
Версия формата : Version 2
Размер файла : 1,46 Гбайт
Продолжительность : 1 ч. 37 м.
Общий поток : 2146 Кбит/сек
Название фильма : Odete (2005) K_I
Дата кодирования : UTC 2012-05-07 11:00:10
Программа кодирования : mkvmerge v5.5.0 ('Healer') built on Apr 6 2012 21:43:24
Библиотека кодирования : libebml v1.2.3 + libmatroska v1.3.0
Видео
Идентификатор : 1
Формат : AVC
Формат/Информация : Advanced Video Codec
Профиль формата : High@L3.1
Параметр CABAC формата : Да
Параметр ReFrames формата : 11 кадров
Идентификатор кодека : V_MPEG4/ISO/AVC
Продолжительность : 1 ч. 37 м.
Битрейт : 1953 Кбит/сек
Ширина : 720 пикселей
Высота : 560 пикселей
Соотношение сторон : 16:9
Частота кадров : 25,000 кадров/сек
Цветовое пространство : YUV
Субдискретизация насыщенности : 4:2:0
Битовая глубина : 8 бит
Тип развёртки : Прогрессивная
Бит/(Пиксели*Кадры) : 0.194
Размер потока : 1,30 Гбайт (89%)
Библиотека кодирования : x264 core 119 r2106 07efeb4
Настройки программы : cabac=1 / ref=11 / deblock=1:-2:-1 / analyse=0x3:0x133 / me=umh / subme=10 / psy=1 / psy_rd=1.00:0.20 / mixed_ref=1 / me_range=24 / chroma_me=1 / trellis=2 / 8x8dct=1 / cqm=0 / deadzone=21,11 / fast_pskip=1 / chroma_qp_offset=-3 / threads=6 / sliced_threads=0 / nr=0 / decimate=1 / interlaced=0 / bluray_compat=0 / constrained_intra=0 / bframes=4 / b_pyramid=2 / b_adapt=2 / b_bias=0 / direct=3 / weightb=1 / open_gop=0 / weightp=2 / keyint=250 / keyint_min=25 / scenecut=40 / intra_refresh=0 / rc_lookahead=60 / rc=2pass / mbtree=1 / bitrate=1953 / ratetol=1.0 / qcomp=0.60 / qpmin=0 / qpmax=69 / qpstep=4 / cplxblur=20.0 / qblur=0.5 / ip_ratio=1.40 / aq=1:1.00
Default : Да
Forced : Нет
Аудио
Идентификатор : 2
Формат : AC-3
Формат/Информация : Audio Coding 3
Расширение режима : CM (complete main)
Параметр Endianness формата : Big
Идентификатор кодека : A_AC3
Продолжительность : 1 ч. 37 м.
Вид битрейта : Постоянный
Битрейт : 192 Кбит/сек
Каналы : 2 канала
Расположение каналов : Front: L R
Частота : 48,0 КГц
Битовая глубина : 16 бит
Метод сжатия : С потерями
Размер потока : 134 Мбайт (9%)
Язык : Russian
Default : Да
Forced : Нет
Сравнение с релизом
http://screenshotcomparison.com/comparison/123491



Скачать Двое.бродяг.Odete.Two.Drifters.(Джоао.Педро.Родригез).[2005.г.драма.гей-тема.DVDRip-AVC].[VO].torrent без регистрации
Золото ЗОЛОТАЯ РАЗДАЧА! СКАЧАННОЕ НЕ ЗАСЧИТЫВАЕТСЯ! Золото
Дата: Зарегистрирован   [ Тип: внутренний ] Как тут cкачать?
MAGNET ссылка
MAGNET ссылка


Скачать .torrent

30 KB

Статус: проверено DHT
Скачан: торрент - 150 раз, раздача полностью - 218 раз
Размер: 1,46 GB
Оценка:  - (Голосов: 0)
Поблагодарили: 1
Поделиться ссылкой на эту раздачу с друзьями:
В контактеFacebookОдноклассникиTwitterLivejournalМой МирLiveinternet
 

 
Показать сообщения:    


Вы не можете начинать темы
Вы не можете отвечать на сообщения
Вы не можете редактировать свои сообщения
Вы не можете удалять свои сообщения
Вы не можете голосовать в опросах
Вы не можете прикреплять файлы к сообщениям
Вы можете скачивать файлы