Loading...
Error

Скачать Жажда смерти 3 / Death Wish 3 (Майкл Уиннер) [1985, боевик, DVDRip-AVC] [AVO] (Гаврилов) + [DVO] + [Original Eng] торрент без регистрации

 
Статистика раздачи
Размер:  1,45 GB   |    Скачан:  151 раз
Сидов:  1  [  0 KB/s  ]  
 
Автор Сообщение

leon030982

[] 

Жажда смерти 3 / Death Wish 3
Страна: США
Жанр: триллер
Год выпуска: 1985
Продолжительность: 01:26:53
Перевод 1: Авторский (одноголосый закадровый) Гаврилов
Перевод 2: Профессиональный (двухголосый закадровый)
Оригинальная аудиодорожка: английский
Режиссер: Майкл Уиннер / Michael Winner
В ролях: Чарльз Бронсон /Charles Bronson/, Дебора Раффин /Deborah Raffin/, Эд Лотер /Ed Lauter/, Мартин Бэлсем /Martin Balsam/, Гэвен О'Херлихи /Gavan O'Herlihy/, Керк Тэйлор /Kirk Taylor/, Алекс Уинтер /Alex Winter

Описание: Архитектор Пол Керси возвращается в Нью-Йорк, где наводит ужас на местную уличную банду. В отличие от и частей пенталогии в этом фильме Пол Керси не просто мстит, он уничтожает, используя тяжелое стрелковое вооружение...
Не смотря на явный переход от триллера в сторону жесткого боевика, главная идея народного мщения сохраняется и побеждает, фильм по-прежнему хорош.

Сэмпл: http://multi-up.com/699175
Качество видео: DVDRip-AVC
Формат видео: MKV
Видео: 720x552@1024x552 (1.85:1), 25 fps, AVC (H.264) ~1818 kbps avg, 0.183 bit/pixel
Аудио 1: Russian (48 kHz, Dolby AC3, 2 ch, 192 kbps) (авторский Гаврилов)
Аудио 2: Russian (48 kHz, Dolby AC3, 2 ch, 192 kbps) (двухголосый)
Аудио 3: English (48 kHz, Dolby AC3, 2 ch, 192 kbps) (оригинал)
Общее
Уникальный идентификатор : 184804406719740070973544478922725050568 (0x8B0808B92E2574AB933867FE9B8AC8C8)
Полное имя : D:\КИНО\Жажда смерти 3.mkv
Формат : Matroska
Версия формата : Version 2
Размер файла : 1,45 Гбайт
Продолжительность : 1 ч. 26 м.
Общий поток : 2396 Кбит/сек
Дата кодирования : UTC 2012-05-08 01:54:56
Программа кодирования : mkvmerge v5.2.1 ('A Far Off Place') built on Jan 2 2012 23:21:10
Библиотека кодирования : libebml v1.2.3 + libmatroska v1.3.0
Видео
Идентификатор : 1
Формат : AVC
Формат/Информация : Advanced Video Codec
Профиль формата : High@L4.1
Параметр CABAC формата : Да
Параметр ReFrames формата : 16 кадров
Идентификатор кодека : V_MPEG4/ISO/AVC
Продолжительность : 1 ч. 26 м.
Битрейт : 1818 Кбит/сек
Ширина : 720 пикселей
Высота : 552 пикселя
Соотношение сторон : 1,855
Частота кадров : 25,000 кадров/сек
Цветовое пространство : YUV
Субдискретизация насыщенности : 4:2:0
Битовая глубина : 8 бит
Тип развёртки : Прогрессивная
Бит/(Пиксели*Кадры) : 0.183
Размер потока : 1,08 Гбайт (74%)
Библиотека кодирования : x264 core 120 r2164 da19765
Настройки программы : cabac=1 / ref=16 / deblock=1:-2:-1 / analyse=0x3:0x133 / me=umh / subme=10 / psy=1 / psy_rd=1.00:0.10 / mixed_ref=1 / me_range=24 / chroma_me=1 / trellis=2 / 8x8dct=1 / cqm=0 / deadzone=21,11 / fast_pskip=1 / chroma_qp_offset=-3 / threads=3 / sliced_threads=0 / nr=0 / decimate=1 / interlaced=0 / bluray_compat=0 / constrained_intra=0 / bframes=8 / b_pyramid=0 / b_adapt=2 / b_bias=0 / direct=3 / weightb=1 / open_gop=0 / weightp=2 / keyint=250 / keyint_min=25 / scenecut=40 / intra_refresh=0 / rc_lookahead=60 / rc=2pass / mbtree=1 / bitrate=1818 / ratetol=1.0 / qcomp=0.60 / qpmin=10 / qpmax=51 / qpstep=4 / cplxblur=20.0 / qblur=0.5 / vbv_maxrate=50000 / vbv_bufsize=50000 / nal_hrd=none / ip_ratio=1.40 / aq=1:1.00
Default : Да
Forced : Нет
Аудио #1
Идентификатор : 2
Формат : AC-3
Формат/Информация : Audio Coding 3
Расширение режима : CM (complete main)
Идентификатор кодека : A_AC3
Продолжительность : 1 ч. 26 м.
Вид битрейта : Постоянный
Битрейт : 192 Кбит/сек
Каналы : 2 канала
Расположение каналов : Front: L R
Частота : 48,0 КГц
Битовая глубина : 16 бит
Метод сжатия : С потерями
Размер потока : 119 Мбайт (8%)
Default : Да
Forced : Нет
Аудио #2
Идентификатор : 3
Формат : AC-3
Формат/Информация : Audio Coding 3
Расширение режима : CM (complete main)
Идентификатор кодека : A_AC3
Продолжительность : 1 ч. 26 м.
Вид битрейта : Постоянный
Битрейт : 192 Кбит/сек
Каналы : 2 канала
Расположение каналов : Front: L R
Частота : 48,0 КГц
Битовая глубина : 16 бит
Метод сжатия : С потерями
Размер потока : 119 Мбайт (8%)
Default : Нет
Forced : Нет
Аудио #3
Идентификатор : 4
Формат : AC-3
Формат/Информация : Audio Coding 3
Расширение режима : CM (complete main)
Идентификатор кодека : A_AC3
Продолжительность : 1 ч. 26 м.
Вид битрейта : Постоянный
Битрейт : 192 Кбит/сек
Каналы : 2 канала
Расположение каналов : Front: L R
Частота : 48,0 КГц
Битовая глубина : 16 бит
Метод сжатия : С потерями
Размер потока : 119 Мбайт (8%)
Default : Нет
Forced : Нет



Скачать Жажда.смерти.3.Death.Wish.3.(Майкл.Уиннер).[1985.боевик.DVDRip-AVC].[AVO].(Гаврилов).+.[DVO].+.[Original.Eng].torrent без регистрации
Золото ЗОЛОТАЯ РАЗДАЧА! СКАЧАННОЕ НЕ ЗАСЧИТЫВАЕТСЯ! Золото
Дата: Зарегистрирован   [ Тип: внутренний ] Как тут cкачать?
MAGNET ссылка
MAGNET ссылка


Скачать .torrent

15 KB

Статус: проверено DHT
Скачан: торрент - 151 раз, раздача полностью - 14 раз
Размер: 1,45 GB
Оценка:  - (Голосов: 0)
Поблагодарили: 0
Поделиться ссылкой на эту раздачу с друзьями:
В контактеFacebookОдноклассникиTwitterLivejournalМой МирLiveinternet
 

 
Показать сообщения:    


Вы не можете начинать темы
Вы не можете отвечать на сообщения
Вы не можете редактировать свои сообщения
Вы не можете удалять свои сообщения
Вы не можете голосовать в опросах
Вы не можете прикреплять файлы к сообщениям
Вы можете скачивать файлы