Loading...
Error

Скачать Совокупность лжи / Body of Lies (Ридли Скотт) [2008, боевик, триллер, драма, приключения, BDRip] [Dub] торрент без регистрации

 
Статистика раздачи
Размер:  2,18 GB   |    Скачан:  226 раз
Сидов:  1  [  0 KB/s  ]  
 
Автор Сообщение

МихаНЕзатор

[] 

Информация о фильме
Название: Совокупность лжи
Оригинальное название: Body of Lies
Год выхода: 2008
Жанр: Боевик, триллер, драма, приключения
Режиссёр: Ридли Скотт

В ролях: Леонардо ДиКаприо, Расселл Кроу, Марк Стронг, Голшифт Фарахани, Оскар Айзек, Али Сулимэн, Алон Абутбул, Винс Колосимо, Саймон МакБерни, Мехди Неббу

О фильме: ЦРУ охотится на руководителя серии террористических атак. Роджер Феррис является агентом национальной разведки, он перемещается по всему свету, пытаясь предотвратить любые нежелательные события. Око в небе, спутник, наблюдает за ним. На другом конце этой связи ветеран ЦРУ Эд Хоффман, который отслеживает события издалека. Чем ближе подбирается Феррис к своей цели, тем явственнее понимает, что доверие это одновременно и опасная штука, и то единственное, что позволит ему остаться в живых...

Выпущено: Warner Bros. / США
Продолжительность: 02:08:18
Перевод: Дубляж (Полный перевод, подробности см. в "Особенности релиза")

Файл
Качество: BDRip
Видео: XviD, 1975 Кбит/с, 720x304, 23.976 кадр/с
Аудио: Dolby AC3, 48000 Гц, 448 Кбит/с, 6 каналов

В данном релизе АБСОЛЮТНО ПОЛНЫЙ РУССКИЙ ПЕРЕВОД!!! ПЕРЕВЕДЕНО И ОЗВУЧЕНО ВСЁ: Начальные и финальные титры, название фильма, надписи, те места где говорят на и других языках.

General
Complete name : Sovokupnost.Lzhi.2008.RUS.XviD.BDRip.avi
Format : AVI
Format/Info : Audio Video Interleave
Format profile : OpenDML
File size : 2.18 GiB
Duration : 2h 8mn
Overall bit rate : 2 433 Kbps
Writing application : VirtualDubMod 1.5.10.2 (build 2540/release)
Writing library : VirtualDubMod build 2540/release

Video
ID : 0
Format : MPEG-4 Visual
Format profile : Advanced Simple@L5
Format settings, BVOP : 1
Format settings, QPel : No
Format settings, GMC : No warppoints
Format settings, Matrix : Default (MPEG)
Codec ID : XVID
Codec ID/Hint : XviD
Duration : 2h 8mn
Bit rate : 1 975 Kbps
Width : 720 pixels
Height : 304 pixels
Display aspect ratio : 2.35:1
Frame rate : 23.976 fps
Color space : YUV
Chroma subsampling : 4:2:0
Bit depth : 8 bits
Scan type : Progressive
Compression mode : Lossy
Bits/(Pixel*Frame) : 0.376
Stream size : 1.77 GiB (81%)
Writing library : XviD 1.2.1 (UTC 2008-12-04)

Audio
ID : 1
Format : AC-3
Format/Info : Audio Coding 3
Mode extension : CM (complete main)
Codec ID : 2000
Duration : 2h 8mn
Bit rate mode : Constant
Bit rate : 448 Kbps
Channel(s) : 6 channels
Channel positions : Front: L C R, Side: L R, LFE
Sampling rate : 48.0 KHz
Bit depth : 16 bits
Compression mode : Lossy
Stream size : 411 MiB (18%)
Alignment : Split accross interleaves
Interleave, duration : 64 ms (1.53 video frames)
Interleave, preload duration : 500 ms



Автор проекта и Rip'а - ivandubskoj



Скачать Совокупность.лжи.Body.of.Lies.(Ридли.Скотт).[2008.боевик.триллер.драма.приключения.BDRip].[Dub].torrent без регистрации
Золото ЗОЛОТАЯ РАЗДАЧА! СКАЧАННОЕ НЕ ЗАСЧИТЫВАЕТСЯ! Золото
Дата: Зарегистрирован   [ Тип: внутренний ] Как тут cкачать?
MAGNET ссылка
MAGNET ссылка


Скачать .torrent

11 KB

Статус: проверено DHT
Скачан: торрент - 226 раз, раздача полностью - 389 раз
Размер: 2,18 GB
Оценка:  5 (Голосов: 1)
Поблагодарили: 5
Поделиться ссылкой на эту раздачу с друзьями:
В контактеFacebookОдноклассникиTwitterLivejournalМой МирLiveinternet
 

 
Показать сообщения:    


Вы не можете начинать темы
Вы не можете отвечать на сообщения
Вы не можете редактировать свои сообщения
Вы не можете удалять свои сообщения
Вы не можете голосовать в опросах
Вы не можете прикреплять файлы к сообщениям
Вы можете скачивать файлы