Loading...
Error

Скачать Неубранные постели / Unmade Beds (Алексис Дос Сантос / Alexis Dos Santos) [2009, США, комедия, драма, DVDRip] DVO + original eng торрент без регистрации

 
Статистика раздачи
Размер:  1,46 GB   |    Скачан:  132 раза
Сидов:  1  [  0 KB/s  ]  
 
Автор Сообщение

maxcross

[] 

Неубранные постели / Unmade Beds

Страна: США
Жанр: комедия, драма
Год выпуска: 2009
Продолжительность: 01:33:07

Перевод: Профессиональный (двухголосый закадровый) ТВ1000 *
Cубтитры: нет
Оригинальная аудиодорожка: английский

Режиссер: Алексис Дос Сантос / Alexis Dos Santos

В ролях: Дебора Франсуа, Фернандо Тилве, Мишель Хайсмэн, Иддо Голдберг, Ричард Линтерн, Катя Винтер, Алексис Дос Сантос

Описание: Аксель и Вера живут на одном лондонском складе, но их совершенно не знакомы. Оба ведут вполне беспечный и бессмысленный образ жизни, состоящий из шатаний по клубам и случайного секса. Аксель ищет своего отца-англичанина, которого едва помнит. Вера просто хочет любви безо всяких обязательств. Но все меняется, когда герои внезапно встречаются.

Сэмпл: http://multi-up.com/405501/

Качество видео: DVDRip (исходник DVD-5)
Формат видео: AVI

Видео: XviD, 1591 Kbps, 720 х 400 pixels, 25.000 fps
Аудио 1: (Rus) AC3, Dolby Digital, 192 Kbps, 2 channels, Front: L R, 48.0 KHz
Аудио 2: (Eng) AC3, 448 Kbps, 6 channels, Front: L C R, Side: L R, LFE, 48.0 KHz

* Захват и синхронизация звука WSmi60

General
Complete name : E:\Рабочая папка\Unmade.Beds.2009.DVDRip.avi
Format : AVI
Format/Info : Audio Video Interleave
File size : 1.46 GiB
Duration : 1h 33mn
Overall bit rate : 2 245 Kbps
Writing application : VirtualDubModRus 1.5.10.2 (build 2542/release)
Writing library : VirtualDubMod build 2542/release

Video
ID : 0
Format : MPEG-4 Visual
Format profile : Advanced Simple@L5
Format settings, BVOP : Yes
Format settings, QPel : No
Format settings, GMC : No warppoints
Format settings, Matrix : Default (MPEG)
Codec ID : XVID
Codec ID/Hint : XviD
Duration : 1h 33mn
Bit rate : 1 591 Kbps
Width : 720 pixels
Height : 400 pixels
Display aspect ratio : 16:9
Frame rate : 25.000 fps
Color space : YUV
Chroma subsampling : 4:2:0
Bit depth : 8 bits
Scan type : Progressive
Bits/(Pixel*Frame) : 0.221
Stream size : 1.03 GiB (71%)
Writing library : XviD 1.2.1 (UTC 2008-12-04)

Audio #1
ID : 1
Format : AC-3
Format/Info : Audio Coding 3
Format profile : Dolby Digital
Mode extension : CM (complete main)
Codec ID : 2000
Duration : 1h 33mn
Bit rate mode : Constant
Bit rate : 192 Kbps
Channel(s) : 2 channels
Channel positions : Front: L R
Sampling rate : 48.0 KHz
Bit depth : 16 bits
Stream size : 128 MiB (9%)
Alignment : Split accross interleaves
Interleave, duration : 40 ms (1.00 video frame)
Interleave, preload duration : 500 ms

Audio #2
ID : 2
Format : AC-3
Format/Info : Audio Coding 3
Mode extension : CM (complete main)
Codec ID : 2000
Duration : 1h 33mn
Bit rate mode : Constant
Bit rate : 448 Kbps
Channel(s) : 6 channels
Channel positions : Front: L C R, Side: L R, LFE
Sampling rate : 48.0 KHz
Bit depth : 16 bits
Stream size : 298 MiB (20%)
Alignment : Split accross interleaves
Interleave, duration : 40 ms (1.00 video frame)
Interleave, preload duration : 500 ms



Скачать Неубранные.постели.Unmade.Beds.(Алексис.Дос.Сантос.Alexis.Dos.Santos).[2009.США.комедия.драма.DVDRip].DVO.+.original.eng.torrent без регистрации
Золото ЗОЛОТАЯ РАЗДАЧА! СКАЧАННОЕ НЕ ЗАСЧИТЫВАЕТСЯ! Золото
Дата: Зарегистрирован   [ Тип: внутренний ] Как тут cкачать?
MAGNET ссылка
MAGNET ссылка


Скачать .torrent

15 KB

Статус: проверено DHT
Скачан: торрент - 132 раз, раздача полностью - 15 раз
Размер: 1,46 GB
Оценка:  4 (Голосов: 1)
Поблагодарили: 0
Поделиться ссылкой на эту раздачу с друзьями:
В контактеFacebookОдноклассникиTwitterLivejournalМой МирLiveinternet
 

 
Показать сообщения:    


Вы не можете начинать темы
Вы не можете отвечать на сообщения
Вы не можете редактировать свои сообщения
Вы не можете удалять свои сообщения
Вы не можете голосовать в опросах
Вы не можете прикреплять файлы к сообщениям
Вы можете скачивать файлы