Loading...
Error

Скачать Кто подставил кролика Роджера / Who Framed Roger Rabbit (Роберт Земекис) [1988 г., Комедия, Анимация, Детектив, HDTVRip] [AVO] (Гаврилов, Михалев) торрент без регистрации

 
Статистика раздачи
Размер:  1,92 GB   |    Скачан:  153 раза
Сидов:  1  [  0 KB/s  ]  
 
Автор Сообщение

leon030982

[] 

Кто подставил кролика Роджера / Who Framed Roger Rabbit
Год выпуска: 1988
Мировая премьера: 22 июня 1988 (США )
Производство: США
Жанр: Комедия, Анимация, Детектив
Продолжительность: 01:39:32
Перевод: Авторский (одноголосый) Андрей Гаврилов + Алексей Михалев + оригинальная английская дорожка
Субтитры: Нет
Режиссер: Роберт Земекис / Robert Zemeckis
В ролях: Боб Хоскинс / Bob Hoskins, Кристофер Ллойд / Christopher Lloyd, Джоанна Кэссиди / Joanna Cassidy, Стабби Кэй / Stubby Kaye, Алан Тилверн / Alan Tilvern

Описание: Частный детектив расследует загадочное преступление, в котором подозревается… мультипликационный персонаж кролик Роджер! Сыщик попадает в непредсказуемый мир, где его ожидают нарисованные злодеи с настоящими револьверами, говорящий автомобиль и соблазнительная мультяшная красотка. Наконец, на горизонте появляется мрачная фигура того, кто подставил кролика Роджера…
• В фильме показаны легендарные трамваи PCC (эти трамваи, созданные в начале 1930-х годов, и сейчас используются в некоторых городах США и Европы). Трамваи грохочут, сыплют искрами, однако жители города всё равно любят их. Даже местная пивная называется «Terminal station Bar» (Бар «Конечная остановка»).
• Бо́льшая часть кинематографической традиции и несколько сцен фильма являются данью уважения фильму Романа Полански «Китайский квартал»
• Изначальное отсутствие вопросительного знака в названии можно объяснить, предположительно, суеверием, что фильмы с вопросительным знаком в названии собирают мало кассовых сборов.
• Титры фильма выводятся в течение почти десяти минут. На момент выхода кролик Роджер был рекордсменом по самой длинной последовательности титров за всю историю кино.
• Дорогой, которую планируют построить через Мультбург, называют путь «отсюда до Пасадены». Возможно, подразумевается автострада «Пасадена», берущая начало из центра Лос-Анджелеса (закончена в 1940-м и потеряла своё значение), или калифорнийское шоссе № 134, проходящее недалеко от Бербанка, Калифорния.
• «Кто подставил кролика Роджера» — это первый фильм студии Диснея, который был показан по телеканалу «Cartoon Network», принадлежащему «Time Warner».
• Более сотни отдельных фрагментов фильма были оптически объединены, чтобы совместить элементы живого действия и анимации. Сами анимационные персонажи были прорисованы вручную без компьютерной мультипликации; аналоговые оптические эффекты использовались для того, чтобы добавить тени и освещение мультяшек, чтобы придать им «более реалистичный», трёхмерный вид.
• Изначально, согласно первому варианту сценария, судья Дум должен быть охотником, который стрелял и убил мать Бэмби, таким образом, в большей степени раскрывается его садистская, жестокая, и чёрствая природа по отношению к своим собратьям-мультяшкам. Однако предполагается, что Дисней отклонил эту идею, считая, что идея массового убийства более предпочтительна, не желая пугать маленьких зрителей этим персонажем больше, чем это необходимо для эмоциональных целей фильма. Эта идея была позже использована в Диснеевском мультфильме «Красавица и чудовище», и предположительно, Гастон был тем, кто убил мать Бэмби. В данном случае нет точных сведений, кто же на самом деле этот судья Дум, большое число поклонников теряются в догадках.
• Большинство поклонников фильма вешают на Джессику Рэббит ярлык «Франкенштейн из богинь фильмов»: говорит голосом Лорен Беколиш (по собственной просьбе Кэтлин Тёрнер в титрах не значится), имеет ноги Бетти Грэйбл, туловище и ягодицы Мэрилин Монро, грудь Джэйн Мансфилд, волосы Вероники Лейк, глаза Мерлин Дитрих, и певчий голос Джуди Гарланд (реализован Эми Ирвинг).
• Впервые на экране одновременно появляются анимационные персонажи созданные разными киносутдиями - Диснея и Уорнер Бразерс.
СЭМПЛ
Источник/Качество: HDTVRip
Формат: AVI
Видео кодек: XviD
Аудио кодек: AC3
Видео: 720x400 (1.80:1), 25 fps, XviD build 64 ~2169 kbps avg, 0.30 bit/pixel
Аудио#1: 48 kHz, AC3 Dolby Digital, 2/0 (L,R) ch, ~192.00 kbps avg - Гаврилов;
Аудио#2: 48 kHz, AC3 Dolby Digital, 2/0 (L,R) ch, ~192.00 kbps avg - Михалёв;
Аудио#3: 48 kHz, AC3 Dolby Digital, 2/0 (L,R) ch, ~192.00 kbps avg - Оригинальная;
Общее
Полное имя : D:\Мои документы\Кинофильмы\Кино\Мои раздачи (незаболваненные)\Who Framed Roger Rabbit (Gavrilov, Mihalev, Eng) (HDTVRip) by A.P..avi
Формат : AVI
Формат/Информация : Audio Video Interleave
Размер файла : 1,92 Гбайт
Продолжительность : 1 ч. 39 м.
Общий поток : 2766 Кбит/сек
Программа кодирования : VirtualDubMod 1.5.10.3 | www.virtualdub-fr.org || (build 2550/release)
Библиотека кодирования : VirtualDubMod build 2550/release
Видео
Идентификатор : 0
Формат : MPEG-4 Visual
Профиль формата : Advanced Simple@L5
Параметр BVOP формата : 2
Параметр QPel формата : Нет
Параметр GMC формата : Без точки перехода
Параметр матрицы формата : Выборочная
Идентификатор кодека : XVID
Идентификатор кодека/Подсказка : XviD
Продолжительность : 1 ч. 39 м.
Битрейт : 2171 Кбит/сек
Ширина : 720 пикселей
Высота : 400 пикселей
Соотношение сторон : 16:9
Частота кадров : 25,000 кадров/сек
Цветовое пространство : YUV
Субдискретизация насыщенности : 4:2:0
Битовая глубина : 8 бит
Тип развёртки : Прогрессивная
Метод сжатия : С потерями
Бит/(Пиксели*Кадры) : 0.302
Размер потока : 1,51 Гбайт (78%)
Библиотека кодирования : XviD 64
Аудио #1
Идентификатор : 1
Формат : AC-3
Формат/Информация : Audio Coding 3
Расширение режима : CM (complete main)
Идентификатор кодека : 2000
Продолжительность : 1 ч. 39 м.
Вид битрейта : Постоянный
Битрейт : 192 Кбит/сек
Каналы : 2 канала
Расположение каналов : Front: L R
Частота : 48,0 КГц
Битовая глубина : 16 бит
Метод сжатия : С потерями
Размер потока : 137 Мбайт (7%)
Выравнивание : Разделение по промежуткам
Продолжительность промежутка : 40 мс. (1,00 видеокадр)
Время предзагрузки промежутка : 500 мс.
Аудио #2
Идентификатор : 2
Формат : AC-3
Формат/Информация : Audio Coding 3
Расширение режима : CM (complete main)
Идентификатор кодека : 2000
Продолжительность : 1 ч. 39 м.
Вид битрейта : Постоянный
Битрейт : 192 Кбит/сек
Каналы : 2 канала
Расположение каналов : Front: L R
Частота : 48,0 КГц
Битовая глубина : 16 бит
Метод сжатия : С потерями
Размер потока : 137 Мбайт (7%)
Выравнивание : Разделение по промежуткам
Продолжительность промежутка : 40 мс. (1,00 видеокадр)
Время предзагрузки промежутка : 500 мс.
Аудио #3
Идентификатор : 3
Формат : AC-3
Формат/Информация : Audio Coding 3
Расширение режима : CM (complete main)
Идентификатор кодека : 2000
Продолжительность : 1 ч. 39 м.
Вид битрейта : Постоянный
Битрейт : 192 Кбит/сек
Каналы : 2 канала
Расположение каналов : Front: L R
Частота : 48,0 КГц
Битовая глубина : 16 бит
Метод сжатия : С потерями
Размер потока : 137 Мбайт (7%)
Выравнивание : Разделение по промежуткам
Продолжительность промежутка : 40 мс. (1,00 видеокадр)
Время предзагрузки промежутка : 500 мс.



Скачать Кто.подставил.кролика.Роджера.Who.Framed.Roger.Rabbit.(Роберт.Земекис).[1988.г.Комедия.Анимация.Детектив.HDTVRip].[AVO].(Гаврилов.Михалев).torrent без регистрации
Золото ЗОЛОТАЯ РАЗДАЧА! СКАЧАННОЕ НЕ ЗАСЧИТЫВАЕТСЯ! Золото
Дата: Зарегистрирован   [ Тип: внутренний ] Как тут cкачать?
MAGNET ссылка
MAGNET ссылка


Скачать .torrent

20 KB

Статус: проверено DHT
Скачан: торрент - 153 раз, раздача полностью - 81 раз
Размер: 1,92 GB
Оценка:  - (Голосов: 0)
Поблагодарили: 0
Поделиться ссылкой на эту раздачу с друзьями:
В контактеFacebookОдноклассникиTwitterLivejournalМой МирLiveinternet
 

 
Показать сообщения:    


Вы не можете начинать темы
Вы не можете отвечать на сообщения
Вы не можете редактировать свои сообщения
Вы не можете удалять свои сообщения
Вы не можете голосовать в опросах
Вы не можете прикреплять файлы к сообщениям
Вы можете скачивать файлы