Loading...
Error

Скачать Ночные Ястребы / Nighthawks (Брюс Мэлмат, Гэри Нельсон) [1981, боевик, триллер, криминал, HDTVRip-AVC] [MVO] + 3x[AVO] (Михалёв, Кузнецов, Гаврилов) + [Eng] торрент без регистрации

 
Статистика раздачи
Размер:  2,91 GB   |    Скачан:  120 раз
Сидов:  1  [  0 KB/s  ]   Личеров:  1  [  0 KB/s  ]  
 
Автор Сообщение

leon030982

[] 

Ночные Ястребы
Nighthawks

Страна: США
Жанр: боевик, триллер, криминал
Год выпуска: 1981
Продолжительность: 01:35:08
Перевод 1: Профессиональный (многоголосый закадровый)
Перевод 2: Авторский (одноголосый закадровый) - Михалёв
Перевод 3: Авторский (одноголосый закадровый) - Кузнецов
Перевод 4: Авторский (одноголосый закадровый) - Гаврилов
Cубтитры: нет
Оригинальная аудиодорожка: английский
Режиссер: Брюс Мэлмат / Bruce Malmuth, Гэри Нельсон / Gary Nelson
В ролях: Сильвестр Сталлоне, Билли Ди Уильямс, Линдсэй Вагнер, Персис Хамбатта, Найджел Дэвенпорт, Рутгер Хауэр, Хилари Томпсон, Джо Спинелл, Уолтер Мэтьюз, Э. Брайан Дин...

Описание:
Отчаянный сержант нью-йоркской полиции Дик Де Сильва привык ловить преступников в экстремальной ситуации «на живца», в роли которого всегда выступал он сам. Но «адреналиновой» службе приходит конец, после того, как героя переводят во вновь созданное антитеррористическое подразделение.
Однако скучать в новой должности Де Сильве не пришлось. В Нью-Йорке объявился самый разыскиваемой террорист на Земле — безжалостный убийца Хеймар Райнхардт, известный всему миру, как Вульфгар, который захватывает заложников прямо в воздухе, в вагончике фуникулера, следующего на Рузвельт — Айленд. Теперь самый бесстрашный коп должен будет сразиться с самым жестоким террористом!


IMDb: 6.30 (7 265)
Семпл: 73,1мб
Качество: {by big1987}
Формат видео: MKV
Видео: кодек: h.264, размер кадра: 1056x574, fps: 25, битрейт: 3358 Kbps, Bits/(Pixel*Frame): 0.222
Аудио#1: аудиокодек: AC3 2.0, 48 KHz битрейт аудио: 192 кб/с - MVO
Аудио#2: аудиокодек: AC3 2.0, 48 KHz битрейт аудио: 192 кб/с - AVO, Михалёв
Аудио#3: аудиокодек: AC3 2.0, 48 KHz битрейт аудио: 192 кб/с - AVO, Кузнецов
Аудио#4: аудиокодек: AC3 2.0, 48 KHz битрейт аудио: 224 кб/с - AVO, Гаврилов
Аудио#5: аудиокодек: AC3 2.0, 48 KHz битрейт аудио: 224 кб/с - Eng
Размер рипа: 2,91Gb
frame I:996 Avg QP:17.33 size: 75097
frame P:29975 Avg QP:19.50 size: 25408
frame B:111720 Avg QP:20.45 size: 13927
Format : Matroska
Format version : Version 2
File size : 2.91 GiB
Duration : 1h 35mn
Overall bit rate : 4 380 Kbps
Movie name : Ночные Ястребы [1981, HDTVRip/AVC] || big1987
Encoded date : UTC 2012-05-09 09:28:12
Writing application : mkvmerge v5.0.1 ('Es ist Sommer') built on Nov 6 2011 16:23:40
Writing library : libebml v1.2.2 + libmatroska v1.3.0
Video
ID : 1
Format : AVC
Format/Info : Advanced Video Codec
Format profile : High@L4.1
Format settings, CABAC : Yes
Format settings, ReFrames : 9 frames
Codec ID : V_MPEG4/ISO/AVC
Duration : 1h 35mn
Bit rate : 3 358 Kbps
Width : 1 056 pixels
Height : 574 pixels
Display aspect ratio : 16:9
Frame rate : 25.000 fps
Color space : YUV
Chroma subsampling : 4:2:0
Bit depth : 8 bits
Scan type : Progressive
Bits/(Pixel*Frame) : 0.222
Stream size : 2.17 GiB (75%)
Title : Ночные Ястребы [1981, HDTVRip/AVC] || big1987
Writing library : x264 core 124 r2197 69a0443
Encoding settings : cabac=1 / ref=9 / deblock=1:-3:-3 / analyse=0x3:0x133 / me=umh / subme=10 / psy=1 / psy_rd=1.00:0.10 / mixed_ref=1 / me_range=32 / chroma_me=1 / trellis=2 / 8x8dct=1 / cqm=0 / deadzone=21,11 / fast_pskip=0 / chroma_qp_offset=-3 / threads=6 / sliced_threads=0 / nr=0 / decimate=0 / interlaced=0 / bluray_compat=0 / constrained_intra=0 / bframes=10 / b_pyramid=2 / b_adapt=2 / b_bias=0 / direct=3 / weightb=1 / open_gop=0 / weightp=2 / keyint=250 / keyint_min=25 / scenecut=40 / intra_refresh=0 / rc_lookahead=40 / rc=2pass / mbtree=0 / bitrate=3358 / ratetol=1.0 / qcomp=0.60 / qpmin=0 / qpmax=69 / qpstep=4 / cplxblur=20.0 / qblur=0.5 / vbv_maxrate=40000 / vbv_bufsize=30000 / nal_hrd=none / ip_ratio=1.40 / pb_ratio=1.30 / aq=1:1.00
Language : English
Default : Yes
Forced : No
Color primaries : BT.709-5, BT.1361, IEC 61966-2-4, SMPTE RP177
Transfer characteristics : BT.709-5, BT.1361
Matrix coefficients : BT.709-5, BT.1361, IEC 61966-2-4 709, SMPTE RP177
Audio #1
ID : 2
Format : AC-3
Format/Info : Audio Coding 3
Mode extension : CM (complete main)
Codec ID : A_AC3
Duration : 1h 35mn
Bit rate mode : Constant
Bit rate : 192 Kbps
Channel(s) : 2 channels
Channel positions : Front: L R
Sampling rate : 48.0 KHz
Bit depth : 16 bits
Compression mode : Lossy
Stream size : 131 MiB (4%)
Title : MVO [AC3 2.0@192kbps]
Language : Russian
Default : Yes
Forced : No
Audio #2
ID : 3
Format : AC-3
Format/Info : Audio Coding 3
Mode extension : CM (complete main)
Codec ID : A_AC3
Duration : 1h 35mn
Bit rate mode : Constant
Bit rate : 192 Kbps
Channel(s) : 2 channels
Channel positions : Front: L R
Sampling rate : 48.0 KHz
Bit depth : 16 bits
Compression mode : Lossy
Stream size : 131 MiB (4%)
Title : AVO {Михалёв} [AC3 2.0@192kbps]
Language : Russian
Default : No
Forced : No
Audio #3
ID : 4
Format : AC-3
Format/Info : Audio Coding 3
Mode extension : CM (complete main)
Codec ID : A_AC3
Duration : 1h 35mn
Bit rate mode : Constant
Bit rate : 192 Kbps
Channel(s) : 2 channels
Channel positions : Front: L R
Sampling rate : 48.0 KHz
Bit depth : 16 bits
Compression mode : Lossy
Stream size : 131 MiB (4%)
Title : AVO {Кузнецов} [AC3 2.0@192kbps]
Language : Russian
Default : No
Forced : No
Audio #4
ID : 5
Format : AC-3
Format/Info : Audio Coding 3
Mode extension : CM (complete main)
Codec ID : A_AC3
Duration : 1h 35mn
Bit rate mode : Constant
Bit rate : 224 Kbps
Channel(s) : 2 channels
Channel positions : Front: L R
Sampling rate : 48.0 KHz
Bit depth : 16 bits
Compression mode : Lossy
Stream size : 152 MiB (5%)
Title : AVO {Гаврилов} [AC3 2.0@224kbps]
Language : Russian
Default : No
Forced : No
Audio #5
ID : 6
Format : AC-3
Format/Info : Audio Coding 3
Mode extension : CM (complete main)
Codec ID : A_AC3
Duration : 1h 35mn
Bit rate mode : Constant
Bit rate : 224 Kbps
Channel(s) : 2 channels
Channel positions : Front: L R
Sampling rate : 48.0 KHz
Bit depth : 16 bits
Compression mode : Lossy
Stream size : 152 MiB (5%)
Title : [AC3 2.0@224kbps]
Language : Russian
Default : No
Forced : No
Menu
00:00:00.000 : en:Chapter 1
00:01:48.639 : en:Chapter 2
00:07:15.520 : en:Chapter 3
00:14:15.720 : en:Chapter 4
00:22:47.680 : en:Chapter 5
00:28:55.400 : en:Chapter 6
00:34:31.520 : en:Chapter 7
00:41:09.199 : en:Chapter 8
00:47:17.000 : en:Chapter 9
00:54:59.840 : en:Chapter 10
01:01:51.800 : en:Chapter 11
01:06:51.400 : en:Chapter 12
01:13:28.040 : en:Chapter 13
01:19:15.479 : en:Chapter 14
01:25:27.040 : en:Chapter 15
01:31:40.760 : en:Chapter 16



Скачать Ночные.Ястребы.Nighthawks.(Брюс.Мэлмат.Гэри.Нельсон).[1981.боевик.триллер.криминал.HDTVRip-AVC].[MVO].+.3x[AVO].(Михалёв.Кузнецов.Гаврилов).+.[Eng].torrent без регистрации
Золото ЗОЛОТАЯ РАЗДАЧА! СКАЧАННОЕ НЕ ЗАСЧИТЫВАЕТСЯ! Золото
Дата: Зарегистрирован   [ Тип: внутренний ] Как тут cкачать?
MAGNET ссылка
MAGNET ссылка


Скачать .torrent

15 KB

Статус: проверено DHT
Скачан: торрент - 120 раз, раздача полностью - 5 раз
Размер: 2,91 GB
Оценка:  - (Голосов: 0)
Поблагодарили: 0
Поделиться ссылкой на эту раздачу с друзьями:
В контактеFacebookОдноклассникиTwitterLivejournalМой МирLiveinternet
 

 
Показать сообщения:    


Вы не можете начинать темы
Вы не можете отвечать на сообщения
Вы не можете редактировать свои сообщения
Вы не можете удалять свои сообщения
Вы не можете голосовать в опросах
Вы не можете прикреплять файлы к сообщениям
Вы можете скачивать файлы