Loading...
Error

Скачать Стальные акулы / Steel Sharks (Родни МакДональд) [1997, боевик, DVDRip] [MVO] торрент без регистрации

 
Статистика раздачи
Размер:  745 MB   |    Скачан:  131 раз
Сидов:  1  [  0 KB/s  ]  
 
Автор Сообщение

leon030982

[] 

Стальные акулы / Steel Sharks
Страна: США
Жанр: боевик
Год выпуска: 1997
Продолжительность: 01:30:25
Перевод: Профессиональный (многоголосый закадровый)
Cубтитры: нет
Режиссер: Родни МакДональд / Rodney McDonald
В ролях: Гэри Бьюзи, Билли Ди Уильямс, Билли Уорлок, Шон Тауб, Роберт Миранда, Дэвид Роберсон, Бэрри Ливингстон, Тим Эйблл, Мэттью Сент-Патрик, Эрик Лоусон

Описание: Агентами иранского режима похищен специалист по химическому оружию. Специальная группа захвата из подразделения «Морских котиков» — «Стальные акулы» — получает задание вернуть его любой ценой.
Даже ценой собственной жизни. Командование операцией поручено Биллу МакКому. Опытный солдат, испытанный боец — его хладнокровие передается всей группе в самый ответственный момент операции.

Сэмпл: http://multi-up.com/701921
Качество видео: DVDRip
Формат видео: AVI
Видео: XviD, 608x464 (1.31), 25 fps, 1014 Kbps
Аудио: MP3 2.0, 48 KHz, 128 Kbps
General
Complete name : Q:\torrent\DVD\Release\Steel Sharks. DVDRip.avi
Format : AVI
Format/Info : Audio Video Interleave
File size : 745 MiB
Duration : 1h 30mn
Overall bit rate : 1 152 Kbps
Writing application : VirtualDubMod 1.5.10.3 | www.virtualdub-fr.org || (build 2550/release)
Writing library : VirtualDubMod build 2550/release
Video
ID : 0
Format : MPEG-4 Visual
Format profile : Advanced Simple@L5
Format settings, BVOP : 1
Format settings, QPel : No
Format settings, GMC : No warppoints
Format settings, Matrix : Default (MPEG)
Codec ID : XVID
Codec ID/Hint : XviD
Duration : 1h 30mn
Bit rate : 1 014 Kbps
Width : 608 pixels
Height : 464 pixels
Display aspect ratio : 4:3
Frame rate : 25.000 fps
Color space : YUV
Chroma subsampling : 4:2:0
Bit depth : 8 bits
Scan type : Progressive
Compression mode : Lossy
Bits/(Pixel*Frame) : 0.144
Stream size : 656 MiB (88%)
Writing library : XviD 1.2.1 (UTC 2008-12-04)
Audio
ID : 1
Format : MPEG Audio
Format version : Version 1
Format profile : Layer 3
Codec ID : 55
Codec ID/Hint : MP3
Duration : 1h 30mn
Bit rate mode : Constant
Bit rate : 128 Kbps
Channel(s) : 2 channels
Sampling rate : 48.0 KHz
Compression mode : Lossy
Stream size : 82.7 MiB (11%)
Alignment : Aligned on interleaves
Interleave, duration : 40 ms (1.00 video frame)
Interleave, preload duration : 504 ms
Writing library : LAME3.98r
Encoding settings : -m s -V 4 -q 2 -lowpass 17 -b 128



Скачать Стальные.акулы.Steel.Sharks.(Родни.МакДональд).[1997.боевик.DVDRip].[MVO].torrent без регистрации
Золото ЗОЛОТАЯ РАЗДАЧА! СКАЧАННОЕ НЕ ЗАСЧИТЫВАЕТСЯ! Золото
Дата: Зарегистрирован   [ Тип: внутренний ] Как тут cкачать?
MAGNET ссылка
MAGNET ссылка


Скачать .torrent

15 KB

Статус: проверено DHT
Скачан: торрент - 131 раз, раздача полностью - 2 раз
Размер: 745 MB
Оценка:  - (Голосов: 0)
Поблагодарили: 1
Поделиться ссылкой на эту раздачу с друзьями:
В контактеFacebookОдноклассникиTwitterLivejournalМой МирLiveinternet
 

 
Показать сообщения:    


Вы не можете начинать темы
Вы не можете отвечать на сообщения
Вы не можете редактировать свои сообщения
Вы не можете удалять свои сообщения
Вы не можете голосовать в опросах
Вы не можете прикреплять файлы к сообщениям
Вы можете скачивать файлы