Loading...
Error

Скачать Сыны Анархии / Sons of Anarchy (Полный 5-ый сезон) (Пэрис Барклай) [2012, драма, криминал, WEB-DLRip] [720p] [MVO] (LostFilm) торрент без регистрации

 
Статистика раздачи
Размер:  23 GB   |    Скачан:  5501 раз
Сидов:  1  [  0 KB/s  ]  
 
Автор Сообщение

leon030982

[] 


Сыны Анархии / Sons of Anarchy

Год выпуска: 2012
Страна: США
Жанр: драма, криминал
Продолжительность: ~00:60:00
Перевод: Профессиональный многоголосый закадровый
Русские субтитры: нет

Режиссёр: Пэрис Барклай
В ролях: Чарли Ханнэм, Кэти Сагал, Марк Бун Джуниор, Ким Коутс, Томми Флэнаган, Мэгги Сифф, Рон Перлман, Тео Росси, Уильям Лаккинг, Райан Херст и др.
Описание: «Сыны Анархии» — сериал рассказывает о клубе байкеров, которые пытаются защитить свой городок от наркотиков и влияния из вне, хотя сами грешат торговлей оружия.

Cэмпл: http://multi-up.com/761528
Качество: WEB-DLRip 720p
Формат: MKV
Видео кодек: H.264
Аудио кодек: AC3
Видео: MPEG-4 AVC / 1280x720 / 23,976 fps / 4041 Kbps / 0.183 bit/pixel
Аудио #1: 48 kHz, 6 ch, ~384 kbps |LostFilm|
Аудио #2: 48 kHz, 6 ch, ~384 kbps |Original|

Код:

Oбщее
Уникальный идентификатор                 : 219513073027096055749316155175743814587 (0xA524AE17EF9ECFF6AA38CFA7BC107BBB)
Полное имя                               : C:\Users\Alex\Desktop\Sons.of.Anarchy.S05\Sons.of.Anarchy.S05E01.HD.rus.LostFilm.mkv
Формат                                   : Matroska
Версия формата                           : Version 2
Размер файла                             : 2,02 Гбайт
Продолжительность                        : 1 ч. 0 м.
Общий поток                              : 4811 Кбит/сек
Дата кодирования                         : UTC 2012-09-16 12:21:05
Программа кодирования                    : mkvmerge v4.2.0 ('No Talking') сборка от Jul 28 2010 18:38:23
Библиотека кодирования                   : libebml v1.0.0 + libmatroska v1.0.0
Видео
Идентификатор                            : 1
Формат                                   : AVC
Формат/Информация                        : Advanced Video Codec
Профиль формата                          : High@L3.1
Параметр CABAC формата                   : Да
Параметр ReFrames формата                : 4 кадра
Идентификатор кодека                     : V_MPEG4/ISO/AVC
Продолжительность                        : 1 ч. 0 м.
Битрейт                                  : 4041 Кбит/сек
Ширина                                   : 1280 пикселей
Высота                                   : 720 пикселей
Соотношение сторон                       : 16:9
Режим частоты кадров                     : Постоянный
Частота кадров                           : 23,976 кадра/сек
Цветовое пространство                    : YUV
Субдискретизация насыщенности            : 4:2:0
Битовая глубина                          : 8 бит
Тип развёртки                            : Прогрессивная
Бит/(Пиксели*Кадры)                      : 0.183
Размер потока                            : 1,66 Гбайт (82%)
Библиотека кодирования                   : x264 core 112 r1834 a51816a
Настройки программы                      : cabac=1 / ref=1 / deblock=1:0:0 / analyse=0x3:0x113 / me=hex / subme=7 / psy=1 / psy_rd=1.00:0.00 / mixed_ref=0 / me_range=16 / chroma_me=1 / trellis=1 / 8x8dct=1 / cqm=0 / deadzone=21,11 / fast_pskip=1 / chroma_qp_offset=-2 / threads=6 / sliced_threads=0 / nr=0 / decimate=1 / interlaced=0 / constrained_intra=0 / bframes=3 / b_pyramid=2 / b_adapt=1 / b_bias=0 / direct=1 / weightb=1 / open_gop=0 / weightp=2 / keyint=250 / keyint_min=25 / scenecut=40 / intra_refresh=0 / rc_lookahead=40 / rc=2pass / mbtree=1 / bitrate=4041 / ratetol=1.0 / qcomp=0.60 / qpmin=0 / qpmax=51 / qpstep=4 / cplxblur=20.0 / qblur=0.5 / ip_ratio=1.40 / aq=1:1.00
Default                                  : Да
Forced                                   : Нет
Аудио #1
Идентификатор                            : 2
Формат                                   : AC-3
Формат/Информация                        : Audio Coding 3
Расширение режима                        : CM (complete main)
Параметр Endianness формата              : Big
Идентификатор кодека                     : A_AC3
Продолжительность                        : 1 ч. 0 м.
Вид битрейта                             : Постоянный
Битрейт                                  : 384 Кбит/сек
Каналы                                   : 2 канала
Расположение каналов                     : Front: L R
Частота                                  : 44,1 КГц
Битовая глубина                          : 16 бит
Метод сжатия                             : С потерями
Размер потока                            : 165 Мбайт (8%)
Default                                  : Да
Forced                                   : Нет
Аудио #2
Идентификатор                            : 3
Формат                                   : AC-3
Формат/Информация                        : Audio Coding 3
Расширение режима                        : CM (complete main)
Параметр Endianness формата              : Big
Идентификатор кодека                     : A_AC3
Продолжительность                        : 1 ч. 0 м.
Вид битрейта                             : Постоянный
Битрейт                                  : 384 Кбит/сек
Каналы                                   : 2 канала
Расположение каналов                     : Front: L R
Частота                                  : 48,0 КГц
Битовая глубина                          : 16 бит
Метод сжатия                             : С потерями
Размер потока                            : 165 Мбайт (8%)
Default                                  : Нет
Forced                                   : Нет
1. Самодержец / Sovereign
Внимание! Раздача ведётся путём добавления новых серий; при каждом добавлении создётся новый торрент. Чтобы начать докачку новой серии, пользователям необходимо сделать следующее:Остановить скачивание.
Удалить старый торрент у себя из клиента (старые серии удалять не надо).
Скачать новый торрент и запустить его у себя в клиенте вместо старого, при этом указать клиенту путь в старую папку куда и должно происходить скачивание новых серий.Ваш клиент при этом должен произвести хеширование (проверку) старой папки (если не производит сам - помогите ему сделать это), и будет докачивать только те серии которых у вас ещё нет. Старые серии при этом не удаляются, а продолжают раздаваться!
Eсли вы уже удалили старые серии, то предотвратить повторную закачку старых серий можно, отжав галочку в соответсвующих местах при запуске нового торрента. По возможности, желательно не удалять старые серии как можно дольше чтобы релизёр не столько продолжал раздавать старые серии, а смог сконцентрироваться на новых.

09.12.12 добавлена финальная 13-я серия!Сезон окончен, продолжение в сентябре 2013



Скачать Сыны.Анархии.Sons.of.Anarchy.(Полный.5-ый.сезон).(Пэрис.Барклай).[2012.драма.криминал.WEB-DLRip].[720p].[MVO].(LostFilm).torrent без регистрации
Золото ЗОЛОТАЯ РАЗДАЧА! СКАЧАННОЕ НЕ ЗАСЧИТЫВАЕТСЯ! Золото
Дата: Зарегистрирован   [ Тип: внутренний ] Как тут cкачать?
MAGNET ссылка
MAGNET ссылка


Скачать .torrent

60 KB

Статус: проверено DHT
Скачан: торрент - 5501 раз, раздача полностью - 21 раз
Размер: 23 GB
Оценка:  5 (Голосов: 2)
Поблагодарили: 2
Поделиться ссылкой на эту раздачу с друзьями:
В контактеFacebookОдноклассникиTwitterLivejournalМой МирLiveinternet
 

 
Показать сообщения:    


Вы не можете начинать темы
Вы не можете отвечать на сообщения
Вы не можете редактировать свои сообщения
Вы не можете удалять свои сообщения
Вы не можете голосовать в опросах
Вы не можете прикреплять файлы к сообщениям
Вы можете скачивать файлы