Loading...
Error

Скачать Пожарные Чикаго / Chicago Fire (Полный 1-ый сезон) (Джо Чаппелль) [2012, Драма, WEB-DLRip] [AVO] (Шадинский) торрент без регистрации

 
Статистика раздачи
Размер:  9,45 GB   |    Скачан:  234 раза
Сидов:  1  [  0 KB/s  ]  
 
Автор Сообщение

leon030982

[] 

Пожарные Чикаго / Chicago Fire

Год выпуска: 2012
Страна: США
Жанр: Драма
Продолжительность: 00:43:06
Озвучка: Профессиональный (одноголосый закадровый) Денис Шадинский[/font]
Субтитры: нет.
Режиссёр: Джо Чаппелль
В ролях: Джесси Спенсер, Тэйлор Кинни, Эамон Уолкер, Дэвид Эйгенберг, Лорен Герман, Терри Ривз, Моника Реймунд и др.
Описание: Сериал рассказывает о самой тяжелой и опасной работе — пожарных и спасателей чикагского отделения Firehouse 51. Несмотря на повседневные геройства мужчин и женщин, их огромная самоотдача приводит к личным потерям. Главные герой Мэтью Кейси, прирожденный лидер и настоящий пожарный. Однако развод с женой заставляет его взглянуть по-новому на многие вещи. Кроме этого, Кейси постоянно находится в конфронтации с другим членом своей команды — лейтенантом Келли Северайдом.

Качество: WEB-DLRip
Формат: AVI
Видео кодек: XviD
Аудио кодек: MP3
Видео: MPEG4, XviD, 624x352 (16/9), 23.976 fps, 1 022 Kbps (0.194 bit/pixel)
Аудио #1 (rus): 48 kHz, MPEG Layer 3, 2 ch, ~128.00 kbps avg |Денис Шадинский|
Аудио #2 (eng): 48 kHz, MPEG Layer 3, 2 ch, ~128.00 kbps avg |Original|
Семпл: http://sendfile.su/735335
сведение звука: 13napas

General
Complete name : I:\ЗАКАЧКИ\Пожарные Чикаго s01 WEB-DLRip (по версии Шадинского)\Chicago.Fire.s01e01.WEB-DLRip.avi
Format : AVI
Format/Info : Audio Video Interleave
File size : 398 MiB
Duration : 43mn 6s
Overall bit rate : 1 292 Kbps
Writing application : VirtualDubMod 1.5.10.3 | www.virtualdub-fr.org || (build 2550/release)
Writing library : VirtualDubMod build 2550/release
Video
ID : 0
Format : MPEG-4 Visual
Format profile : Advanced Simple@L5
Format settings, BVOP : 1
Format settings, QPel : No
Format settings, GMC : No warppoints
Format settings, Matrix : Default (MPEG)
Codec ID : XVID
Codec ID/Hint : XviD
Duration : 43mn 6s
Bit rate : 1 022 Kbps
Width : 624 pixels
Height : 352 pixels
Display aspect ratio : 16:9
Frame rate : 23.976 fps
Color space : YUV
Chroma subsampling : 4:2:0
Bit depth : 8 bits
Scan type : Progressive
Compression mode : Lossy
Bits/(Pixel*Frame) : 0.194
Stream size : 315 MiB (79%)
Writing library : XviD 1.2.1 (UTC 2008-12-04)
Audio #1
ID : 1
Format : MPEG Audio
Format version : Version 1
Format profile : Layer 3
Mode : Joint stereo
Mode extension : MS Stereo
Codec ID : 55
Codec ID/Hint : MP3
Duration : 43mn 6s
Bit rate mode : Constant
Bit rate : 128 Kbps
Channel(s) : 2 channels
Sampling rate : 48.0 KHz
Compression mode : Lossy
Stream size : 39.5 MiB (10%)
Alignment : Aligned on interleaves
Interleave, duration : 42 ms (1.00 video frame)
Interleave, preload duration : 504 ms
Writing library : LAME3.98r
Encoding settings : -m j -V 4 -q 0 -lowpass 17 -b 128
Audio #2
ID : 2
Format : MPEG Audio
Format version : Version 1
Format profile : Layer 3
Codec ID : 55
Codec ID/Hint : MP3
Duration : 43mn 6s
Bit rate mode : Constant
Bit rate : 128 Kbps
Channel(s) : 2 channels
Sampling rate : 48.0 KHz
Compression mode : Lossy
Stream size : 39.5 MiB (10%)
Alignment : Aligned on interleaves
Interleave, duration : 42 ms (1.00 video frame)
Interleave, preload duration : 504 ms
Внимание! Раздача ведётся путём добавления новых серий; при каждом добавлении создfётся новый торрент. Чтобы начать докачку новой серии, пользователям необходимо сделать следующее: (1) остановить скачивание, (2) удалить старый торрент у себя из клиента (старые серии удалять не надо), (3) скачать новый торрент и запустить его у себя в клиенте вместо старого, при этом указать клиенту путь в старую папку куда и должно происходить скачивание новых серий.
Ваш клиент при этом должен произвести хеширование (проверку) старой папки (если не производит сам - помогите ему сделать это), и будет докачивать только те серии которых у вас ещё нет. Старые серии при этом не удаляются, а продолжают раздаваться!
Eсли вы уже удалили старые серии, то предотвратить повторную закачку старых серий можно, отжав галочку в соответсвующих местах при запуске нового торрента.



Скачать Пожарные.Чикаго.Chicago.Fire.(Полный.1-ый.сезон).(Джо.Чаппелль).[2012.Драма.WEB-DLRip].[AVO].(Шадинский).torrent без регистрации
Золото ЗОЛОТАЯ РАЗДАЧА! СКАЧАННОЕ НЕ ЗАСЧИТЫВАЕТСЯ! Золото
Дата: Зарегистрирован   [ Тип: внутренний ] Как тут cкачать?
MAGNET ссылка
MAGNET ссылка


Скачать .torrent

49 KB

Статус: проверено DHT
Скачан: торрент - 234 раз, раздача полностью - 13 раз
Размер: 9,45 GB
Оценка:  - (Голосов: 0)
Поблагодарили: 0
Поделиться ссылкой на эту раздачу с друзьями:
В контактеFacebookОдноклассникиTwitterLivejournalМой МирLiveinternet
 

 

leon030982

[] 

17-18 серии az
 

leon030982

[] 

19-я серия ay az
 

leon030982

[] 

20-я серия az
 

leon030982

[] 

обновлено az
 

leon030982

[] 

раздача обновлена az
 

leon030982

[] 

финал сезона az
 
Показать сообщения:    


Вы не можете начинать темы
Вы не можете отвечать на сообщения
Вы не можете редактировать свои сообщения
Вы не можете удалять свои сообщения
Вы не можете голосовать в опросах
Вы не можете прикреплять файлы к сообщениям
Вы можете скачивать файлы