Loading...
Error

Скачать Фарт / Luck (Полный 1-ый сезон) (Michael Mann) [2012 г. драма, криминальный, HDTVRip] [LostFilm] + [Original] торрент без регистрации

 
Статистика раздачи
Размер:  9,3 GB   |    Скачан:  139 раз
Сидов:  1  [  0 KB/s  ]  
 
Автор Сообщение

leon030982

[] 


Фарт | Luck


Год выпуска: 2012 г.
Страна: США
Жанр: драма, криминальный
Продолжительность: ~ 01:00:00
Перевод: Профессиональный (многоголосый, закадровый) |LostFilm|
Субтитры: есть (Английские)
Режиссер: Michael Mann
В ролях:
Dustin Hoffman, Gary Stevens, Tom Payne, Nick Nolte, John Ortiz, Ritchie Coster, Kevin Dunn, Dennis Farina, Jason Gedrick, Ian Hart, Richard Kind и др.

Описание:
Сериал Luck расскажет нам о удивительном и чрезвычайно затягивающем – азартном мире скачек, где выиграешь ты или проиграешь зависит не только от твоих знаний и умений, но и от удачи.
Главный герой сериала только только вышел из тюрьмы. Он не верит никому, вся его прошлая жизнь - череда афер, ставок и денежных махинаций. И он не собирается забывать об этом, напротив: используя весь свой опыт, герой планирует провернуть новое дело. Для этого он объединяется с своим бывшим шофером (и по совместительству вышибалой) по имени Гас.
Их цель – ипподром и скачки. Но одних своих сил и знаний не хватает, поэтому мошенники нанимают успешного и скандально известного тренера.
Ведь когда на кону миллионы долларов, одной удачи будет мало, и ей будут нужны помощники.

Качество: HDTVRip (Luck.1080i.HDTV.DD5.1.MPEG2-TrollHD)
Формат: AVI
Видео кодек: XviD
Аудио кодек: AC3
Видео: 720*400 (1.80), 23.976 fps, XviD MPEG-4, ~2000 kbps, 0.29 bit/pixel
Аудио #1: 48 kHz, AC3 Dolby Digital, 5.1 ch, 384 kbps avg |LostFilm|
Аудио #2: 48 kHz, AC3 Dolby Digital, 5.1 ch, 384 kbps avg |Original|
Озвучка: Студия "LostFilm"
Работа со звуком: Nez
Рип видео:

| Сэмпл | IMDb | КиноПоиск




- 01 - Pilot
- 02 - Episode 2
- 03 - Episode 3
- 04 - Episode 4
- 05 - Episode 5
- 06 - Episode 6
- 07 - Episode 7
- 08 - Episode 8
- 09 - Episode 9

General
Format : AVI
Format/Info : Audio Video Interleave
File size : 1.00 GiB
Duration : 51mn 23s
Overall bit rate : 2 787 Kbps
Writing application : VirtualDubMod 1.5.10.2 (build 2540/release)
Writing library : VirtualDubMod build 2540/release
Video
ID : 0
Format : MPEG-4 Visual
Format profile : Advanced Simple@L5
Format settings, BVOP : 2
Format settings, QPel : No
Format settings, GMC : No warppoints
Format settings, Matrix : Default (MPEG)
Codec ID : XVID
Codec ID/Hint : XviD
Duration : 51mn 23s
Bit rate : 2 005 Kbps
Width : 720 pixels
Height : 400 pixels
Display aspect ratio : 16:9
Frame rate : 23.976 fps
Color space : YUV
Chroma subsampling : 4:2:0
Bit depth : 8 bits
Scan type : Progressive
Compression mode : Lossy
Bits/(Pixel*Frame) : 0.290
Stream size : 737 MiB (72%)
Writing library : XviD 1.2.1 (UTC 2008-12-04)
Audio #1
ID : 1
Format : AC-3
Format/Info : Audio Coding 3
Mode extension : CM (complete main)
Codec ID : 2000
Duration : 51mn 23s
Bit rate mode : Constant
Bit rate : 384 Kbps
Channel(s) : 6 channels
Channel positions : Front: L C R, Side: L R, LFE
Sampling rate : 48.0 KHz
Bit depth : 16 bits
Compression mode : Lossy
Stream size : 141 MiB (14%)
Alignment : Split accross interleaves
Interleave, duration : 42 ms (1.00 video frame)
Interleave, preload duration : 500 ms
Audio #2
ID : 2
Format : AC-3
Format/Info : Audio Coding 3
Mode extension : CM (complete main)
Codec ID : 2000
Duration : 51mn 23s
Bit rate mode : Constant
Bit rate : 384 Kbps
Channel(s) : 6 channels
Channel positions : Front: L C R, Side: L R, LFE
Sampling rate : 48.0 KHz
Bit depth : 16 bits
Compression mode : Lossy
Stream size : 141 MiB (14%)
Alignment : Split accross interleaves
Interleave, duration : 42 ms (1.00 video frame)
Interleave, preload duration : 500 ms
Внимание! Раздача ведётся путём добавления новых серий; при каждом добавлении создётся новый торрент. Чтобы начать докачку новой серии, пользователям необходимо сделать следующее:
(1) остановить скачивание,
(2) удалить старый торрент у себя из клиента (старые серии удалять не надо),
(3) скачать новый торрент и запустить его у себя в клиенте вместо старого, при этом указать клиенту путь в старую папку куда и должно происходить скачивание новых серий.
Ваш клиент при этом должен произвести хеширование (проверку) старой папки (если не производит сам - помогите ему сделать это), и будет докачивать только те серии которых у вас ещё нет. Старые серии при этом не удаляются, а продолжают раздаваться!
Eсли вы уже удалили старые серии, то предотвратить повторную закачку старых серий можно, отжав галочку в соответсвующих местах при запуске нового торрента.





Скачать Фарт.Luck.(Полный.1-ый.сезон).(Michael.Mann).[2012.г.драма.криминальный.HDTVRip].[LostFilm].+.[Original].torrent без регистрации
Золото ЗОЛОТАЯ РАЗДАЧА! СКАЧАННОЕ НЕ ЗАСЧИТЫВАЕТСЯ! Золото
Дата: Зарегистрирован   [ Тип: внутренний ] Как тут cкачать?
MAGNET ссылка
MAGNET ссылка


Скачать .torrent

48 KB

Статус: проверено DHT
Скачан: торрент - 139 раз, раздача полностью - 5 раз
Размер: 9,3 GB
Оценка:  - (Голосов: 0)
Поблагодарили: 2
Поделиться ссылкой на эту раздачу с друзьями:
В контактеFacebookОдноклассникиTwitterLivejournalМой МирLiveinternet
 

 
Показать сообщения:    


Вы не можете начинать темы
Вы не можете отвечать на сообщения
Вы не можете редактировать свои сообщения
Вы не можете удалять свои сообщения
Вы не можете голосовать в опросах
Вы не можете прикреплять файлы к сообщениям
Вы можете скачивать файлы