Loading...
Error

Скачать Титаник / Titanic (Герберт Селпин) [1943, боевик, драма, история, DVDRip] [Sub Rus] (Ирина090365) + [Original Ger] торрент без регистрации

 
Статистика раздачи
Размер:  1,59 GB   |    Скачан:  167 раз
Сидов:  1  [  0 KB/s  ]  
 
Автор Сообщение

leon030982

[] 

Титаник / Titanic





Страна: Германия
Жанр: боевик, драма, история
Год выпуска: 1943
Продолжительность: 01:24:42
Перевод: Субтитры [Автор перевода: Ирина090365]
Cубтитры: русские
Оригинальная аудиодорожка: немецкий
Режиссер: Герберт Селпин / Herbert Selpin
В ролях: Сибилл Шмитц, Ганс Нилсен, Кирстен Хейберг, Карл Шёнбёк, Шарлотта Тьеле, Отто Вернике, Франц Шафхайтлин
Описание: Немецкий пропагандистский фильм режиссёров Вернера Клинглера и Герберта Селпина.
Директор “White Star Line” — компании-владельца “Титаника” — Брюс Исмей приказал капитану корабля Эдварду Смиту вести “Титаник” на максимальной скорости. Когда были получены первые предупреждения о ледовой опасности, капитан Смит должен был решить, стоит ли рисковать безопасностью лайнера в угоду Исмею.

Автор рипа: MrSherlockHolmes

Качество видео: DVDRip
Формат видео: AVI
Видео: MPEG4, DivX 5, 704x528 (4/3), 29.970 fps, 2 481 Kbps (0.223 bit/pixel)
Аудио: MP3, 48.0 KHz, 2 ch, 192 Kbps, CBR
Формат субтитров: softsub (SRT)
General
Format : AVI
Format/Info : Audio Video Interleave
File size : 1.59 GiB
Duration : 1h 24mn
Overall bit rate : 2 684 Kbps
Writing application : VirtualDubMod 1.5.4.1 (build 2178/release)
Writing library : VirtualDub build 32817/release
Video
ID : 0
Format : MPEG-4 Visual
Format settings, BVOP : Yes
Format settings, QPel : No
Format settings, GMC : No warppoints
Format settings, Matrix : Default (H.263)
Codec ID : DX50
Codec ID/Hint : DivX 5
Duration : 1h 24mn
Bit rate : 2 481 Kbps
Width : 704 pixels
Height : 528 pixels
Display aspect ratio : 4:3
Frame rate : 29.970 fps
Color space : YUV
Chroma subsampling : 4:2:0
Bit depth : 8 bits
Scan type : Progressive
Bits/(Pixel*Frame) : 0.223
Stream size : 1.47 GiB (92%)
Writing library : DivX 5.2.1 (WaffleDay) (UTC 2004-09-08)
Audio
ID : 1
Format : MPEG Audio
Format version : Version 1
Format profile : Layer 3
Mode : Joint stereo
Mode extension : MS Stereo
Codec ID : 55
Codec ID/Hint : MP3
Duration : 1h 24mn
Bit rate mode : Constant
Bit rate : 192 Kbps
Channel(s) : 2 channels
Sampling rate : 48.0 KHz
Stream size : 116 MiB (7%)
Alignment : Aligned on interleaves
Interleave, duration : 33 ms (1.00 video frame)
Interleave, preload duration : 504 ms



Скачать Титаник.Titanic.(Герберт.Селпин).[1943.боевик.драма.история.DVDRip].[Sub.Rus].(Ирина090365).+.[Original.Ger].torrent без регистрации
Золото ЗОЛОТАЯ РАЗДАЧА! СКАЧАННОЕ НЕ ЗАСЧИТЫВАЕТСЯ! Золото
Дата: Зарегистрирован   [ Тип: внутренний ] Как тут cкачать?
MAGNET ссылка
MAGNET ссылка


Скачать .torrent

17 KB

Статус: проверено DHT
Скачан: торрент - 167 раз, раздача полностью - 5 раз
Размер: 1,59 GB
Оценка:  - (Голосов: 0)
Поблагодарили: 0
Поделиться ссылкой на эту раздачу с друзьями:
В контактеFacebookОдноклассникиTwitterLivejournalМой МирLiveinternet
 

 
Показать сообщения:    


Вы не можете начинать темы
Вы не можете отвечать на сообщения
Вы не можете редактировать свои сообщения
Вы не можете удалять свои сообщения
Вы не можете голосовать в опросах
Вы не можете прикреплять файлы к сообщениям
Вы можете скачивать файлы