Loading...
Error

Скачать Сыны Анархии / Sons of Anarchy (Полный 5-ый сезон) (Курт Саттер) [2012, детектив, драма, криминал, HDTVRip] [720p] [Original] + [rus sub] (нотабеноид) торрент без регистрации

 
Статистика раздачи
Размер:  21,94 GB   |    Скачан:  2718 раз
Сидов:  1  [  0 KB/s  ]   Личеров:  1  [  0 KB/s  ]  
 
Автор Сообщение

leon030982

[] 

Сыны Анархии / Sons of Anarchy (Сезон 5, серии 01-13 из 13)

Год выпуска: 2012
Страна: США
Жанр: детектив, драма, криминал
Продолжительность: ~46-47 минут
Перевод: Субтитры
Субтитры: русские субтитры
Автор перевода: команда нотабеноид (auresil, polomin, kolobov, redskin, Franz, boss77777boss, Sworod, maximaqx, borodax1, bas2118)

Режиссёр: Курт Саттер

В ролях: Charlie Hunnam, Katey Sagal, Mark Boone Junior, Dayton Callie, Kim Coates, Tommy Flanagan, Ryan Hurst, Johnny Lewis, William Lucking, Theo Rossi, Maggie Siff and Ron Perlman

Описание: Сериал рассказывает о клубе байкеров, которые пытаются защитить свой городок Чарминг от наркотиков и влияния извне, хотя сами занимаются незаконной продажей оружия.

Сэмпл: Сэмпл
Качество: HDTVRip 720p
Формат: MKV
Видео кодек: H.264
Аудио кодек: AC3
Видео: 1280x720 (16:9), 23.976 fps, 4 553 kbps, 0.185 bit/pixel
Аудио: 48 kHz, 6 ch, 384 kbps [Original]
General
Unique ID : 229869610394155518036501681690747883947 (0xACEF46CF036B60F88B5F5087042851AB)
Complete name : E:\Видео\Сыны анархии 5 сезон\Sons.of.Anarchy.S05E01.720p.HDTV.Sovereign.mkv
Format : Matroska
Format version : Version 2
File size : 1.88 GiB
Duration : 59mn 1s
Overall bit rate : 4 553 Kbps
Encoded date : UTC 2012-09-12 03:30:06
Writing application : mkvmerge v5.7.0 ('The Whirlwind') built on Jul 8 2012 20:08:51
Writing library : libebml v1.2.3 + libmatroska v1.3.0
Video
ID : 1
Format : AVC
Format/Info : Advanced Video Codec
Format profile : High@L4.1
Format settings, CABAC : Yes
Format settings, ReFrames : 5 frames
Codec ID : V_MPEG4/ISO/AVC
Duration : 59mn 1s
Bit rate : 4 079 Kbps
Width : 1 280 pixels
Height : 720 pixels
Display aspect ratio : 16:9
Frame rate mode : Constant
Frame rate : 23.976 fps
Color space : YUV
Chroma subsampling : 4:2:0
Bit depth : 8 bits
Scan type : Progressive
Bits/(Pixel*Frame) : 0.185
Stream size : 1.68 GiB (90%)
Writing library : x264 core 125 r2208 d9d2288
Encoding settings : cabac=1 / ref=5 / deblock=1:0:0 / analyse=0x3:0x113 / me=umh / subme=8 / psy=1 / psy_rd=1.00:0.00 / mixed_ref=1 / me_range=16 / chroma_me=1 / trellis=1 / 8x8dct=1 / cqm=0 / deadzone=21,11 / fast_pskip=1 / chroma_qp_offset=-2 / threads=18 / lookahead_threads=3 / sliced_threads=0 / nr=0 / decimate=1 / interlaced=0 / bluray_compat=0 / constrained_intra=0 / bframes=3 / b_pyramid=2 / b_adapt=2 / b_bias=0 / direct=3 / weightb=1 / open_gop=0 / weightp=2 / keyint=250 / keyint_min=23 / scenecut=40 / intra_refresh=0 / rc_lookahead=50 / rc=crf / mbtree=1 / crf=19.0 / qcomp=0.60 / qpmin=0 / qpmax=69 / qpstep=4 / ip_ratio=1.40 / aq=1:1.00
Language : English
Default : Yes
Forced : No
Matrix coefficients : BT.709
Audio
ID : 2
Format : AC-3
Format/Info : Audio Coding 3
Mode extension : CM (complete main)
Format settings, Endianness : Big
Codec ID : A_AC3
Duration : 59mn 1s
Bit rate mode : Constant
Bit rate : 384 Kbps
Channel(s) : 6 channels
Channel positions : Front: L C R, Side: L R, LFE
Sampling rate : 48.0 KHz
Bit depth : 16 bits
Compression mode : Lossy
Stream size : 162 MiB (8%)
Default : Yes
Forced : No
Внимание! Раздача ведётся путём добавления новых серий; при каждом добавлении создётся новый торрент. Чтобы начать докачку новой серии, пользователям необходимо сделать следующее:
-Остановить скачивание.
-Удалить старый торрент у себя из клиента (старые серии удалять не надо).
-Скачать новый торрент и запустить его у себя в клиенте вместо старого, при этом указать клиенту путь в старую папку куда и должно происходить скачивание новых серий.
Ваш клиент при этом должен произвести хеширование (проверку) старой папки (если не производит сам - помогите ему сделать это), и будет докачивать только те серии которых у вас ещё нет. Старые серии при этом не удаляются, а продолжают раздаваться!
Если вы уже удалили старые серии, то предотвратить повторную закачку старых серий можно, отжав галочку в соответствующих местах при запуске нового торрента. По возможности, желательно не удалять старые серии как можно дольше чтобы релизёр не столько продолжал раздавать старые серии, а смог сконцентрироваться на новых.
1.Sovereign / Правитель
2.Authority Vested / Законные полномочия
3.Laying Pipe / Лежащая труба
4.Stolen Huffy / Краденая шлюха
5.Orca Shrugged / Великан расправил плечи
6.Small World / Крошечный мир
7.Toad's Wild Ride
Оригинальные субтитры кроме реплик героев содержат также дублирование различных звуков(выстрелов,звонков,зевки,итд)
Поэтому, начиная с третьей серии, мы делим переведенные субтитры на 2 типа.
1)по умолчанию(название совпадает с именем видеофайла)-эти самые звуки отсутствуют
2)extra.sub - здесь же звуки есть и переведены. эта версия рекомендуется для людей с ослабленным слухом
Выбирайте на ваш вкус
09.12.12 ДОБАВЛЕНА ФИНАЛЬНАЯ 13 СЕРИЯ!
Прочитайте под спойлером "что такое extra.sub"



Скачать Сыны.Анархии.Sons.of.Anarchy.(Полный.5-ый.сезон).(Курт.Саттер).[2012.детектив.драма.криминал.HDTVRip].[720p].[Original].+.[rus.sub].(нотабеноид).torrent без регистрации
Золото ЗОЛОТАЯ РАЗДАЧА! СКАЧАННОЕ НЕ ЗАСЧИТЫВАЕТСЯ! Золото
Дата: Зарегистрирован   [ Тип: внутренний ] Как тут cкачать?
MAGNET ссылка
MAGNET ссылка


Скачать .torrent

59 KB

Статус: проверено DHT
Скачан: торрент - 2718 раз, раздача полностью - 21 раз
Размер: 21,94 GB
Оценка:  5 (Голосов: 1)
Поблагодарили: 1
Поделиться ссылкой на эту раздачу с друзьями:
В контактеFacebookОдноклассникиTwitterLivejournalМой МирLiveinternet
 

 
Показать сообщения:    


Вы не можете начинать темы
Вы не можете отвечать на сообщения
Вы не можете редактировать свои сообщения
Вы не можете удалять свои сообщения
Вы не можете голосовать в опросах
Вы не можете прикреплять файлы к сообщениям
Вы можете скачивать файлы