Loading...
Error

Скачать Братья Вайанс / The Wayans Bros (Полный 1-ый сезон) (Глинн Термен, Марлон Уайанс) [1995, комедия, HDTVRip] [AVO] (Денис Шадинский) торрент без регистрации

 
Статистика раздачи
Размер:  2,93 GB   |    Скачан:  201 раз
Сидов:  1  [  0 KB/s  ]  
 
Автор Сообщение

leon030982

[] 

Братья Вайанс / The Wayans Bros / Сезон: 1


Год выпуска: 1995
Страна: США
Жанр: комедия
Продолжительность: 00:22:36
Перевод: Профессиональный (одноголосный, закадровый) [Денис Шадинский]
Русские субтитры: нет

Режиссёр: Глинн Термен, Марлон Уайанс

В ролях: Марлон Уайанс, Шоун Уайанс, Джон Уитерспун, Анна Мария, Хорсфорд Фил, Льюис Пола, Джей Паркер, Ja'net DuBois, Джилл Таскер, Митч Маллэни, Жермен Хагги Хопкинс и др.

Описание: Идиотские, смешные выходки братьев Шона и Марлона Вайанс и их мудрого, но экстравагантного отца, который ооочень любит женские груди.

Сэмпл: http://multi-up.com/474503
Качество: HDTVRip
Формат: AVI
Видео кодек: XviD
Аудио кодек: MP3
Видео: 512x400 (1.28:1), 29.970 fps, XviD 1.1 beta 2 (build 39) ~831 kbps avg, 0.14 bit/pixel
Аудио: 48 kHz, MPEG Layer 3, 2 ch, ~160.00 kbps avg

Перевод и озвучка: Профессиональный (одноголосый, закадровый)
Озвучил Денис Шадинский по версии Шадинского "Кураж-Бамбей"
Перевод с 8-й серии Илья Чупряев, под редакцией Шадинского
Video
ID : 0
Format : MPEG-4 Visual
Format profile : Advanced Simple@L5
Format settings, BVOP : Yes
Format settings, QPel : No
Format settings, GMC : No warppoints
Format settings, Matrix : Custom
Codec ID : XVID
Codec ID/Hint : XviD
Duration : 22mn 36s
Bit rate : 1 290 Kbps
Width : 512 pixels
Height : 400 pixels
Display aspect ratio : 1.280
Frame rate : 29.970 fps
Color space : YUV
Chroma subsampling : 4:2:0
Bit depth : 8 bits
Scan type : Progressive
Bits/(Pixel*Frame) : 0.210
Stream size : 209 MiB (88%)
Writing library : XviD 1.1.0 Beta2 (UTC 2005-04-04)
Audio
ID : 1
Format : MPEG Audio
Format version : Version 1
Format profile : Layer 3
Codec ID : 55
Codec ID/Hint : MP3
Duration : 22mn 36s
Bit rate mode : Constant
Bit rate : 160 Kbps
Channel(s) : 2 channels
Sampling rate : 48.0 KHz
Stream size : 25.9 MiB (11%)
Alignment : Split accross interleaves
Interleave, duration : 33 ms (1.00 video frame)
Interleave, preload duration : 500 ms



Скачать Братья.Вайанс.The.Wayans.Bros.(Полный.1-ый.сезон).(Глинн.Термен.Марлон.Уайанс).[1995.комедия.HDTVRip].[AVO].(Денис.Шадинский).torrent без регистрации
Золото ЗОЛОТАЯ РАЗДАЧА! СКАЧАННОЕ НЕ ЗАСЧИТЫВАЕТСЯ! Золото
Дата: Зарегистрирован   [ Тип: внутренний ] Как тут cкачать?
MAGNET ссылка
MAGNET ссылка


Скачать .torrent

16 KB

Статус: проверено DHT
Скачан: торрент - 201 раз, раздача полностью - 57 раз
Размер: 2,93 GB
Оценка:  5 (Голосов: 2)
Поблагодарили: 3
Поделиться ссылкой на эту раздачу с друзьями:
В контактеFacebookОдноклассникиTwitterLivejournalМой МирLiveinternet
 

 

MartinSart

[] 

Мне кажется или видео подергивается в 3ей серии?
 
Показать сообщения:    


Вы не можете начинать темы
Вы не можете отвечать на сообщения
Вы не можете редактировать свои сообщения
Вы не можете удалять свои сообщения
Вы не можете голосовать в опросах
Вы не можете прикреплять файлы к сообщениям
Вы можете скачивать файлы