Loading...
Error

Скачать Супергёрл / Supergirl (Жанно Шварц) [1984, фантастика, боевик, приключения, DVDRip-AVC] [режиссёрская версия] [VO] (Никита Севастьянов) торрент без регистрации

 
Статистика раздачи
Размер:  1,46 GB   |    Скачан:  142 раза
Сидов:  1  [  0 KB/s  ]  
 
Автор Сообщение

leon030982

[] 

Супергёрл / Supergirl / режиссёрская версия
Страна: Великобритания
Жанр: фантастика, боевик, приключения
Год выпуска: 1984
Продолжительность: 02:18:39
Перевод: (Одноголосый закадровый) Никита Севастьянов
Cубтитры: английские
Оригинальная аудиодорожка: английский
Режиссер: Жанно Шварц / Jeannot Szwarc

В ролях: Фэй Данауэй, Хелен Слейтер, Питер О’Тул, Миа Фэрроу, Бренда Ваккаро, Питер Кук, Саймон Уорд, Марк МакКлюр, Харт Бокнер...

Описание: Кузина супермена Кара-Эль отправляется с Криптона на Землю, чтобы найти и вернуть на родную планету омегагидрон — мощный источник энергии, попавший в руки ведьмы Селены, которая решила использовать его для захвата мира.

Сэмпл: http://multi-up.com/703112
Качество видео: DVDRip-AVC
Формат видео: MKV
Видео: 720x364 (2.35:1) @ 844x364, 23.976 fps, AVC, ~1120 Kbps, 0.178 bits/pixel
Аудио: Russian, 48.0 KHz, AC3, 2 ch, 192 Kbps
Аудио 2: English, 48.0 KHz, AC3, 2 ch, 192 Kbps
Формат субтитров: softsub (SRT)
General
Unique ID : 187922778505459311363179803350430694591 (0x8D609C529D8CC698A63479217204BCBF)
Complete name : D:\torrent\Supergirl.mkv
Format : Matroska
Format version : Version 2
File size : 1.46 GiB
Duration : 2h 18mn
Overall bit rate : 1 506 Kbps
Encoded date : UTC 2012-05-15 15:58:24
Writing application : mkvmerge v5.3.0 ('I could have danced') built on Mar 5 2012 16:04:53
Writing library : libebml v1.2.3 + libmatroska v1.3.0
Video
ID : 1
Format : AVC
Format/Info : Advanced Video Codec
Format profile : High@L4.1
Format settings, CABAC : Yes
Format settings, ReFrames : 8 frames
Codec ID : V_MPEG4/ISO/AVC
Duration : 2h 18mn
Bit rate : 1 120 Kbps
Width : 720 pixels
Height : 364 pixels
Display aspect ratio : 2.35:1
Frame rate : 23.976 fps
Color space : YUV
Chroma subsampling : 4:2:0
Bit depth : 8 bits
Scan type : Progressive
Bits/(Pixel*Frame) : 0.178
Stream size : 1.06 GiB (73%)
Writing library : x264 core 120 r2164 da19765
Encoding settings : cabac=1 / ref=8 / deblock=1:-1:-1 / analyse=0x3:0x133 / me=umh / subme=7 / psy=1 / psy_rd=1.00:0.10 / mixed_ref=1 / me_range=16 / chroma_me=1 / trellis=2 / 8x8dct=1 / cqm=0 / deadzone=21,11 / fast_pskip=0 / chroma_qp_offset=-3 / threads=3 / sliced_threads=0 / nr=0 / decimate=1 / interlaced=0 / bluray_compat=0 / constrained_intra=0 / bframes=3 / b_pyramid=2 / b_adapt=2 / b_bias=0 / direct=3 / weightb=1 / open_gop=0 / weightp=2 / keyint=250 / keyint_min=23 / scenecut=40 / intra_refresh=0 / rc_lookahead=50 / rc=2pass / mbtree=1 / bitrate=1120 / ratetol=1.0 / qcomp=0.60 / qpmin=0 / qpmax=69 / qpstep=4 / cplxblur=20.0 / qblur=0.5 / ip_ratio=1.40 / aq=1:1.00
Default : Yes
Forced : No
Audio #1
ID : 2
Format : AC-3
Format/Info : Audio Coding 3
Mode extension : CM (complete main)
Format settings, Endianness : Big
Codec ID : A_AC3
Duration : 2h 18mn
Bit rate mode : Constant
Bit rate : 192 Kbps
Channel(s) : 2 channels
Channel positions : Front: L R
Sampling rate : 48.0 KHz
Bit depth : 16 bits
Compression mode : Lossy
Stream size : 190 MiB (13%)
Language : Russian
Default : Yes
Forced : No
Audio #2
ID : 3
Format : AC-3
Format/Info : Audio Coding 3
Mode extension : CM (complete main)
Format settings, Endianness : Big
Codec ID : A_AC3
Duration : 2h 18mn
Bit rate mode : Constant
Bit rate : 192 Kbps
Channel(s) : 2 channels
Channel positions : Front: L R
Sampling rate : 48.0 KHz
Bit depth : 16 bits
Compression mode : Lossy
Stream size : 190 MiB (13%)
Language : English
Default : No
Forced : No
Text
ID : 4
Format : UTF-8
Codec ID : S_TEXT/UTF8
Codec ID/Info : UTF-8 Plain Text
Language : English
Default : Yes
Forced : No



Скачать Супергёрл.Supergirl.(Жанно.Шварц).[1984.фантастика.боевик.приключения.DVDRip-AVC].[режиссёрская.версия].[VO].(Никита.Севастьянов).torrent без регистрации
Золото ЗОЛОТАЯ РАЗДАЧА! СКАЧАННОЕ НЕ ЗАСЧИТЫВАЕТСЯ! Золото
Дата: Зарегистрирован   [ Тип: внутренний ] Как тут cкачать?
MAGNET ссылка
MAGNET ссылка


Скачать .torrent

15 KB

Статус: проверено DHT
Скачан: торрент - 142 раз, раздача полностью - 13 раз
Размер: 1,46 GB
Оценка:  - (Голосов: 0)
Поблагодарили: 0
Поделиться ссылкой на эту раздачу с друзьями:
В контактеFacebookОдноклассникиTwitterLivejournalМой МирLiveinternet
 

 
Показать сообщения:    


Вы не можете начинать темы
Вы не можете отвечать на сообщения
Вы не можете редактировать свои сообщения
Вы не можете удалять свои сообщения
Вы не можете голосовать в опросах
Вы не можете прикреплять файлы к сообщениям
Вы можете скачивать файлы