Loading...
Error

Скачать Лихорадка: Весеннее обострение / Cabin Fever 2: Spring Fever (Ти Уэст ) [2009, ужасы, комедия, HDRip] [лицензия] торрент без регистрации

 
Статистика раздачи
Размер:  702 MB   |    Скачан:  158 раз
Сидов:  1  [  0 KB/s  ]  
 
Автор Сообщение

leon030982

[] 

Лихорадка: Весеннее обострение / Cabin Fever 2: Spring Fever



Страна: США
Жанр: ужасы, комедия
Год выпуска: 2009
Продолжительность: 01:25:59
Перевод: Профессиональный (многоголосый закадровый) [лицензия]
Cубтитры: нет
Режиссер: Ти Уэст / Ti West

В ролях: Райдер Стронг, Ной Сеган, Александр Айзиа Томас, Джузеппе Эндрюс, Алекси Вассер, Эмили, Расти Келли, Марк Сентер, Майкл Боуэн, Аманда Джелкс

Описание: Лихорадка вырывается из лесной глуши и попадает в маленький городок Спрингфилд в день выпускного бала. Подростки готовятся проститься со школой, детством и невинностью, но им предстоит лишиться большего, ведь в город прибывает команда зачистки...



Сэмпл: http://multi-up.com/703345
Качество видео: HDRip [исходник неизвестен]
Формат видео: AVI
Видео: 720x304 (2.37:1), 24 fps, XviD build 50 ~999 kbps avg, 0.19 bit/pixel
Аудио: 48 kHz, MPEG Layer 3, 2 ch, ~128.00 kbps avg
General
Complete name : C:\Documents and Settings\Admin\Мои документы\Downloads\Lihoradka.Vesennee.obostrenie.2009.P.HDRip.700MB.avi
Format : AVI
Format/Info : Audio Video Interleave
File size : 702 MiB
Duration : 1h 25mn
Overall bit rate : 1 141 Kbps
Movie name : Lihoradka.Vesennee.obostrenie.2009.P.HDRip.IRONCLUB
Director : IRONCLUB
Genre : Horror | Thriller
Writing application : Lavf52.94.0
Original source form/Name : Movie
Copyright : http://ironclub.tv/
Video
Format : xvid
Codec ID : xvid
Duration : 1h 25mn
Bit rate : 1 000 Kbps
Width : 720 pixels
Height : 304 pixels
Display aspect ratio : 2.35:1
Frame rate : 24.000 fps
Bits/(Pixel*Frame) : 0.190
Stream size : 615 MiB (88%)
Audio
ID : 1
Format : MPEG Audio
Format version : Version 1
Format profile : Layer 3
Mode : Joint stereo
Format_Settings_ModeExtension : MS Stereo
Codec ID : 55
Codec ID/Hint : MP3
Duration : 1h 25mn
Bit rate mode : Constant
Bit rate : 128 Kbps
Channel(s) : 2 channels
Sampling rate : 48.0 KHz
Stream size : 78.7 MiB (11%)
Alignment : Aligned on interleaves
Interleave, duration : 24 ms (0.58 video frame)
Writing library : LAME3.98.4



Скачать Лихорадка.Весеннее.обострение.Cabin.Fever.2.Spring.Fever.(Ти.Уэст.).[2009.ужасы.комедия.HDRip].[лицензия].torrent без регистрации
Золото ЗОЛОТАЯ РАЗДАЧА! СКАЧАННОЕ НЕ ЗАСЧИТЫВАЕТСЯ! Золото
Дата: Зарегистрирован   [ Тип: внутренний ] Как тут cкачать?
MAGNET ссылка
MAGNET ссылка


Скачать .torrent

14 KB

Статус: проверено DHT
Скачан: торрент - 158 раз, раздача полностью - 4154 раз
Размер: 702 MB
Оценка:  - (Голосов: 0)
Поблагодарили: 0
Поделиться ссылкой на эту раздачу с друзьями:
В контактеFacebookОдноклассникиTwitterLivejournalМой МирLiveinternet
 

 
Показать сообщения:    


Вы не можете начинать темы
Вы не можете отвечать на сообщения
Вы не можете редактировать свои сообщения
Вы не можете удалять свои сообщения
Вы не можете голосовать в опросах
Вы не можете прикреплять файлы к сообщениям
Вы можете скачивать файлы