Loading...
Error

Скачать Киллер / Killer (Марк Мэлоун) [1994, Триллер, драма, мелодрама, DVDRip] [DVO] торрент без регистрации

 
Статистика раздачи
Размер:  1,37 GB   |    Скачан:  147 раз
Сидов:  1  [  0 KB/s  ]  
 
Автор Сообщение

leon030982

[] 

Киллер / Killer
Страна: США
Жанр: Триллер, драма, мелодрама
Год выпуска: 1994
Продолжительность: 01:33:51
Перевод: Профессиональный (двухголосый закадровый)
Cубтитры: нет
Режиссер: Марк Мэлоун / Mark Malone
В ролях: Энтони ЛаПалья, Мими Роджерс, Мэтт Крэвен, Питер Бойл, Моника Шнарре, Джозеф Maэp, Марк Эчесон, Фил Хэйес, Клаудио Де Виктор

Описание: Мик — профессиональный киллер, работающий на мафию. Он ведёт размеренную жизнь, выполняет заказы и зарабатывает большие деньги. Но всё меняется, когда ему поручают убрать некую молодую особу. Фиона не просто очаровательная женщина — она обладает необъяснимой властью над людьми, с которыми общается. Вскоре Мик узнаёт, что Фиона сама заказала собственное убийство. Но понимает, что уже не в силах нажать на курок…

Релиз
Сэмпл: http://multi-up.com/663063
Качество видео: DVDRip
Формат видео: AVI
Видео: XviD build 50, 688x512 (1.34:1), 25 fps, 1691 kbps avg
Аудио: AC3 Dolby Digital, 3/2 (L,C,R,l,r) + LFE ch, 384.00 kbps avg
General
Complete name : D:\Killer.1994.XviD.DVDRip-Zanaves.avi
Format : AVI
Format/Info : Audio Video Interleave
File size : 1.37 GiB
Duration : 1h 33mn
Overall bit rate : 2 086 Kbps
Writing application : VirtualDubMod 1.5.10.2 (build 2540/release)
Writing library : VirtualDubMod build 2540/release
Video
ID : 0
Format : MPEG-4 Visual
Format profile : AdvancedSimple@L5
Format settings, BVOP : Yes
Format settings, QPel : No
Format settings, GMC : No warppoints
Format settings, Matrix : Default (MPEG)
Codec ID : XVID
Codec ID/Hint : XviD
Duration : 1h 33mn
Bit rate : 1 692 Kbps
Width : 688 pixels
Height : 512 pixels
Display aspect ratio : 4/3
Frame rate : 25.000 fps
Resolution : 24 bits
Colorimetry : 4:2:0
Scan type : Progressive
Bits/(Pixel*Frame) : 0.192
Stream size : 1.11 GiB (81%)
Writing library : XviD 1.2.1 (UTC 2008-12-04)
Audio
ID : 1
Format : AC-3
Format/Info : Audio Coding 3
Codec ID : 2000
Duration : 1h 33mn
Bit rate mode : Constant
Bit rate : 384 Kbps
Channel(s) : 6 channels
Channel positions : Front: L C R, Surround: L R, LFE
Sampling rate : 48.0 KHz
Stream size : 258 MiB (18%)
Alignment : Split accross interleaves
Interleave, duration : 40 ms (1.00 video frame)
Interleave, preload duration : 500 ms



Скачать Киллер.Killer.(Марк.Мэлоун).[1994.Триллер.драма.мелодрама.DVDRip].[DVO].torrent без регистрации
Золото ЗОЛОТАЯ РАЗДАЧА! СКАЧАННОЕ НЕ ЗАСЧИТЫВАЕТСЯ! Золото
Дата: Зарегистрирован   [ Тип: внутренний ] Как тут cкачать?
MAGNET ссылка
MAGNET ссылка


Скачать .torrent

14 KB

Статус: проверено DHT
Скачан: торрент - 147 раз, раздача полностью - 13 раз
Размер: 1,37 GB
Оценка:  - (Голосов: 0)
Поблагодарили: 0
Поделиться ссылкой на эту раздачу с друзьями:
В контактеFacebookОдноклассникиTwitterLivejournalМой МирLiveinternet
 

 
Показать сообщения:    


Вы не можете начинать темы
Вы не можете отвечать на сообщения
Вы не можете редактировать свои сообщения
Вы не можете удалять свои сообщения
Вы не можете голосовать в опросах
Вы не можете прикреплять файлы к сообщениям
Вы можете скачивать файлы