Loading...
Error

Скачать Мост / Broen (Полный сезон) (Хенрик Георгсон, Шарлотта Зилинг, Лиза Сиве) [2011-2012, триллер, детектив, HDRip-AVC] [MVO] [Baibako] торрент без регистрации

 
Статистика раздачи
Размер:  7,61 GB   |    Скачан:  193 раза
Сидов:  1  [  0 KB/s  ]  
 
Автор Сообщение

leon030982

[] 

Мост / Broen
Год выпуска: 2011-2012
Страна: Дания, Швеция
Жанр: триллер, детектив
Продолжительность: 57 минут
Перевод: любительский многоголосый закадровый (Baibako)
Оригинальная дорожка: датская
Русские субтитры: нет
Субтитры: нет
Режиссёр: Хенрик Георгсон, Шарлотта Зилинг, Лиза Сиве
В ролях: София Хелин, Ким Бодниа, Даг Малмберг, Рафаэль Петтерссон

Описание: На самой середине моста Орезунд, связывающего Швецию с Данией, происходит краткое отключение электроэнергии. Появление света знаменует собой появление незнакомого объекта: тело женщины, обращенное головой к Швеции, ногами к Дании. Чья полиция должна руководить расследованием убийства подброшенной за несколько минут мертвой женщины?
Шведская женщина-комиссар Сага Норен решает: это ее сфера ответственности, ведь убитая - шведский политик, председатель совета города Мальмё.
Но вот незадача: оказывается, вторая-то половина женщины - от датской проститутки, исчезнувшей более года назад... А это - сфера ответственности комиссара из Копенгагена, Мартина Роде, у которого и так хватает проблем (и личных, и очень личных, и профессиональных).
В любом случае, двум сыскарям придется работать вместе, а это, как оказалось, совсем нелегко: язык не всегда понятен, методы работы - разные, зарплата и представление об ответственности - очень отличаются, да и менталитет, несмотря на близкое соседство двух стран, не поддается никакому сравнению.

Доп. информация:
Перевод: Вадим Литвиненко
Озвучка: Светлана Доманова, Татьяна Оболевич, Александр Фурман и Олекса Мельник

Монтаж: Игорь Лихо
Обложка: Татьяна Оболевич


Сэмпл: http://narod.ru/disk/46460157001.57718926a30d3958be...598_692.mp4.html
Качество: HDRip-AVC
Формат: MP4
Видео кодек: X.264
Аудио кодек: AAC
Видео: VC High@L3.1 x264 720x400 1500 Кбит/сек 23,976 кадра/сек 0.217 Bits/Pixel
Аудио: RUS: AAC LC 2 канала 48,0 КГц 192 Кбит/сек VBR
Аудио 2: DAN: AAC LC 2 канала 48,0 КГц 192 Кбит/сек VBR
Релиз:
General
Complete name : Broen.s01e01.HDRip.x264.Rus-Dan.BaibaKo.tv.mp4
Format : MPEG-4
Format profile : Base Media
Codec ID : isom
File size : 778 MiB
Duration : 57mn 32s
Overall bit rate mode : Variable
Overall bit rate : 1 890 Kbps
Encoded date : UTC 2012-04-01 01:10:13
Tagged date : UTC 2012-04-01 01:10:13
Video
ID : 1
Format : AVC
Format/Info : Advanced Video Codec
Format profile : High@L3.1
Format settings, CABAC : Yes
Format settings, ReFrames : 8 frames
Codec ID : avc1
Codec ID/Info : Advanced Video Coding
Duration : 57mn 32s
Bit rate : 1 500 Kbps
Maximum bit rate : 5 883 Kbps
Width : 720 pixels
Height : 400 pixels
Display aspect ratio : 16:9
Frame rate mode : Constant
Frame rate : 25.000 fps
Color space : YUV
Chroma subsampling : 4:2:0
Bit depth : 8 bits
Scan type : Progressive
Bits/(Pixel*Frame) : 0.208
Stream size : 617 MiB (79%)
Title : áNÍé
Writing library : x264 core 120 r2164 da19765
Encoding settings : cabac=1 / ref=8 / deblock=1:1:1 / analyse=0x3:0x113 / me=umh / subme=9 / psy=1 / psy_rd=1.00:0.00 / mixed_ref=1 / me_range=16 / chroma_me=1 / trellis=2 / 8x8dct=1 / cqm=0 / deadzone=21,11 / fast_pskip=1 / chroma_qp_offset=-2 / threads=8 / sliced_threads=0 / nr=0 / decimate=1 / interlaced=0 / bluray_compat=0 / constrained_intra=0 / bframes=3 / b_pyramid=2 / b_adapt=2 / b_bias=0 / direct=3 / weightb=1 / open_gop=0 / weightp=2 / keyint=100 / keyint_min=23 / scenecut=40 / intra_refresh=0 / rc=2pass / mbtree=0 / bitrate=1500 / ratetol=1.0 / qcomp=0.60 / qpmin=0 / qpmax=69 / qpstep=4 / cplxblur=20.0 / qblur=0.5 / ip_ratio=1.40 / pb_ratio=1.30 / aq=1:1.00
Encoded date : UTC 2012-03-26 22:11:16
Tagged date : UTC 2012-04-01 01:10:56
Audio #1
ID : 2
Format : AAC
Format/Info : Advanced Audio Codec
Format profile : LC
Codec ID : 40
Duration : 57mn 32s
Bit rate mode : Variable
Bit rate : 192 Kbps
Maximum bit rate : 200 Kbps
Channel(s) : 2 channels
Channel positions : Front: L R
Sampling rate : 48.0 KHz
Compression mode : Lossy
Stream size : 79.0 MiB (10%)
Language : Russian
Encoded date : UTC 2012-04-01 01:10:37
Tagged date : UTC 2012-04-01 01:10:56
Audio #2
ID : 3
Format : AAC
Format/Info : Advanced Audio Codec
Format profile : LC
Codec ID : 40
Duration : 57mn 32s
Bit rate mode : Variable
Bit rate : 192 Kbps
Maximum bit rate : 201 Kbps
Channel(s) : 2 channels
Channel positions : Front: L R
Sampling rate : 48.0 KHz
Compression mode : Lossy
Stream size : 79.0 MiB (10%)
Language : Danish
Encoded date : UTC 2012-04-01 01:10:43
Tagged date : UTC 2012-04-01 01:10:56


Внимание! Раздача ведётся путём добавления новых серий; при каждом добавлении создётся новый торрент. Чтобы начать докачку новой серии, пользователям необходимо сделать следующее:
(1) остановить скачивание,
(2) удалить старый торрент у себя из клиента (старые серии удалять не надо),
(3) скачать новый торрент и запустить его у себя в клиенте вместо старого, при этом указать клиенту путь в старую папку куда и должно происходить скачивание новых серий.
Ваш клиент при этом должен произвести хеширование (проверку) старой папки (если не производит сам - помогите ему сделать это), и будет докачивать только те серии которых у вас ещё нет. Старые серии при этом не удаляются, а продолжают раздаваться!
Eсли вы уже удалили старые серии, то предотвратить повторную закачку старых серий можно, отжав галочку в соответсвующих местах при запуске нового торрента.

Добавлена финальная 10-я серия. 13.06.2012




Скачать Мост.Broen.(Полный.сезон).(Хенрик.Георгсон.Шарлотта.Зилинг.Лиза.Сиве).[2011-2012.триллер.детектив.HDRip-AVC].[MVO].[Baibako].torrent без регистрации
Золото ЗОЛОТАЯ РАЗДАЧА! СКАЧАННОЕ НЕ ЗАСЧИТЫВАЕТСЯ! Золото
Дата: Зарегистрирован   [ Тип: внутренний ] Как тут cкачать?
MAGNET ссылка
MAGNET ссылка


Скачать .torrent

39 KB

Статус: проверено DHT
Скачан: торрент - 193 раз, раздача полностью - 122 раз
Размер: 7,61 GB
Оценка:  4 (Голосов: 1)
Поблагодарили: 3
Поделиться ссылкой на эту раздачу с друзьями:
В контактеFacebookОдноклассникиTwitterLivejournalМой МирLiveinternet
 

 
Показать сообщения:    


Вы не можете начинать темы
Вы не можете отвечать на сообщения
Вы не можете редактировать свои сообщения
Вы не можете удалять свои сообщения
Вы не можете голосовать в опросах
Вы не можете прикреплять файлы к сообщениям
Вы можете скачивать файлы