Loading...
Error

Скачать Сыны Анархии / Sons of Anarchy (Сезон 1-6, Серии 1-72 из 79) (Пэрис Барклай,Гвинет Хордер-Пэйтон, Стефен Т.) [2008-2013, драма, криминал, HDTVRip-AVC 720р, WEB-DLRip-AVC 720р] [DD5.1] [MVO] [LostFilm] торрент без регистрации

 
Статистика раздачи
Размер:  71,35 GB   |    Скачан:  2998 раз
Сидов:  1  [  0 KB/s  ]  
 
Автор Сообщение

Nikolai.Baranov

[] 



Сыны Анархии / Сыновья Анархии / Sons of Anarchy





Год выпуска: 2008-2013
Выпущено: США
Жанр: Драма, Криминал
Количество сезонов: 6
Продолжительность: 00:47:00
Сезон: 1-6
Серии: 1-72
Количество серий в сезоне: 79
Озвучка:Профессиональный многоголосый закадровый(LostFilm)
Субтитры: Нет


Сайт сериала:



Режиссер: Пэрис Барклай,Гвинет Хордер-Пэйтон, Стефен Т. Кэй, Гай Ферленд, Билл Джирхарт, Курт Саттер, Пэрис Барклай, Терренс О’Хара, Фил Абрахам

В ролях: Чарли Ханнэм Кэти Сагал Марк Бун Джуниор Томми Флэнаган Мэгги Сифф Ким Коутс Рон Перлман Тео Росси Райан Херст Дэйтон Калли и другие...


«Сыны Анархии» — сериал рассказывает о клубе байкеров, которые пытаются защитить свой городок от наркотиков и влияния из вне, хотя сами грешат торговлей оружием. Секс, наркотики и рок-н-ролл, любовь, насилие и смысл жизни – вокруг этих проблем бытия закручен сюжет «Сынов».


Сезон1
Качество : HDTVRipAVC 720p
Формат: MPEG-4
Видео кодек: H264
Видео: 2007Кбит/сек,1280х720(16.9),в 29.970кадр/сек,AVC(Baseline@L1.3)(1Ref Frames)
Аудио кодек: AAC
Аудио Russian Dolby Digital 5.1:257Кбит/сек,44.1КГц,6каналов,AAC,(Version4)(LC)

Сезон2
Качество : WEB-DLRipAVC 720p
Формат: MPEG-4
Видео кодек: H264
Видео: 2490Кбит/сек,1280х720(16.9),в 29.970кадр/сек,AVC(Baseline@L3.1)(1Ref Frames)
Аудио кодек: AAC
Аудио Russian Dolby Digital 5.1:250Кбит/сек,44.1КГц,6каналов,AAC,(Version4)(LC)

Сезон3
Качество : WEB-DLRipAVC 720p
Формат: MPEG-4
Видео кодек: H264
Видео: 2492Кбит/сек,1280х720(16.9),в 29.970кадр/сек,AVC(Baseline@L3.1)(1Ref Frames)
Аудио кодек: AAC
Аудио Russian Dolby Digital 5.1:254Кбит/сек,44.1КГц,6каналов,AAC,(Version4)(LC)

Сезон4
Качество : WEB-DLRipAVC 720p
Формат: MPEG-4
Видео кодек: H264
Видео: 2493Кбит/сек,1280х720(16.9),в 29.970кадр/сек,AVC(Baseline@L3.1)(1Ref Frames)
Аудио кодек: AAC
Аудио Russian Dolby Digital 5.1:257Кбит/сек,44.1КГц,6каналов,AAC,(Version4)(LC)
Сезон5
Качество : WEB-DLRipAVC 720p
Формат: MPEG-4
Видео кодек: H264
Видео: 3117Кбит/сек,1280х720(16.9),в 25000кадр/сек,AVC(Baseline@L3.1)(1Ref Frames)
Аудио кодек: AAC
Аудио Russian Dolby Digital 5.1:456Кбит/сек,44.1КГц,6каналов,AAC,(Version4)(LC)
Сезон6
Качество : WEB-DLRipAVC 720p
Формат: MPEG-4
Видео кодек: H264
Видео: 3130Кбит/сек,1280х720(16.9),в 25000кадр/сек,AVC(Baseline@L3.1)(1Ref Frames)
Аудио кодек: AAC
Аудио Russian Dolby Digital 5.1:265Кбит/сек,44.1КГц,6каналов,AAC,(Version4)(LC)



01 Пилот (Pilot)
02 Семя (Seeds)
03 Луна-парк (Fun Town)
04 Перебой (Patch Over)
05 Расплата (Giving Back)
06 АК-51 (AK-51)
07 Старые кости (Old Bones)
08 Тяга (The Pull)
09 И ад следовал за ним (Hell Followed)
10 Лучшая половина (Better Half)
11 Стукачок (Capybara)
12 Сон младенцев (The Sleep of Babies)
13 Провидец (The Revelator)


01 Белее белого (Albification)
02 Небольшие разрывы (Small Tears)
03 Доза (Fix)
04 Эврика (Eureka)
05 Удар (Smite)
06 Кровоизлияние в мозг (Falx Cerebri)
07 Исцеление (Gilead)
08 Прием (Potlatch)
09 Судья (Fa Guan)
10 Утешение (Balm)
11 Служба (Service)
12 Выбраковка (The Culling)
13 Смута (Na Triobloidi)



01 Итак... (So)
02 Промасленный (Oiled)
03 Сиделка (Caregiver)
04 Дом (Home)
05 Поворот за поворотом (Turning and Turning)
06 Нажим (The Push)
07 Расширяя круг (Widening Gyre)
08 Лохан Мор (Lochan Mor)
09 Тур (Turas)
10 Правда (Firinne)
11 Молоко (Bainne)
12 Свадьба Джун (June Wedding)
13 Ны (Ns)



01 Выход (Out)
02 Нагнетатель (Booster)
03 Муравьи (Dorylus)
04 Сделка (Una Venta)
05 Брикет (Brick)
06 "У" на конце (With an X)
07 Корм для воронья (Fruit for the Crows)
08 Семейный рецепт (Family Recipe)
09 Поцелуй (Kiss)
10 Руки (Hands)
11 Долг зовёт (Call of Duty)
12 Сожжён и развеян по ветру (Burnt and Purged Away)
13 Быть. Действие первое (To Be, Act 1)
14 Быть. Действие второе (To Be, Act 2)



01 Самодержец (Sovereign) PROPER
02 Властью наделенный (Authority Vested)
03 Выбор мишени (Laying Pipe) PROPER
04 Украденный велосипед (Stolen Huffy)
05 Туша вздрогнула (Orca Shrugged)
06 Мир тесен (Small World)
07 Сумасшедшая езда (Toad's Wild Ride)
08 Разрушение (Ablation)
09 Пойти порыбачить (Andare Pescare)
10 Распятый (Crucifixed)
11 Каждому свое (To Thine Own Self)
12 Укол (Darthy)
13 Всё под контролем (J'ai Obtenu Cette)




01 Соломинка (Straw)
02 Сонет 116 (One One Six)
03 Покаяние (Poenitentia)
04 Вольфсангель (Wolfsangel)
05 Безумный король (The Mad King)
06 Обломки (Salvage)



eneral
Полное имя : F:\К И Н О\С Е Р И А Л Ы\С Ы Н Ы А Н А Р Х И И\Sons_Of_Anarchy_S01_-_S06_rus[LostFilm_TV]_DD5.1_x264_Nikolai.Baranov_HDTVRip-AVC_WEB-DLRip-AVC_(720p)\S01\Sons.of.Anarchy.s01e01.2008[LostFilm.TV]rus.x264.Nikolai.Baranov.HDTVRip.AVC_(720p).mp4
Формат : MPEG-4
Профиль формата : Base Media
Идентификатор кодека : isom
Размер файла : 930 MiB
Продолжительность : 57mn 20s
Режим общего битрейта : Variable
Общий поток : 2 269 Kbps
Дата кодирования : UTC 2011-02-22 10:16:59
Дата пометки : UTC 2011-02-22 10:16:59
Программа кодирования : Lavf51.12.1

Video
Идентификатор : 1
Формат : AVC
Формат/Информация : Advanced Video Codec
Профиль формата : Baseline@L1.3
Параметр CABAC формата : No
Параметр ReFrames формата : 1 frame
Идентификатор кодека : avc1
Идентификатор кодека/Информация : Advanced Video Coding
Продолжительность : 57mn 20s
Битрейт : 2 007 Kbps
Ширина : 1 280 pixels
Высота : 720 pixels
Соотношение сторон : 16:9
Режим частоты кадров : Constant
Частота кадров : 29.970 fps
Цветовое пространство : YUV
Субдискретизация насыщенности : 4:2:0
Битовая глубина : 8 bits
Тип развёртки : Progressive
Бит/(Пиксели*Кадры) : 0.073
Размер потока : 823 MiB (88%)
Дата кодирования : UTC 2011-02-22 10:16:59
Дата пометки : UTC 2011-02-22 10:16:59

Audio
Идентификатор : 2
Формат : AAC
Формат/Информация : Advanced Audio Codec
Профиль формата : LC
Идентификатор кодека : 40
Продолжительность : 57mn 20s
Вид битрейта : Variable
Битрейт : 257 Kbps
Каналы : 6 channels
Расположение каналов : Front: L C R, Side: L R, LFE
Частота : 44.1 KHz
Метод сжатия : Lossy
Размер потока : 105 MiB (11%)
Дата кодирования : UTC 2011-02-22 10:16:59
Дата пометки : UTC 2011-02-22 10:16:59


General
Полное имя : F:\К И Н О\С Е Р И А Л Ы\С Ы Н Ы А Н А Р Х И И\Sons_Of_Anarchy_S01_-_S06_rus[LostFilm_TV]_DD5.1_x264_Nikolai.Baranov_HDTVRip-AVC_WEB-DLRip-AVC_(720p)\S02\Sons.of.Anarchy.s02e01.2009[LostFilm.TV]rus.x264.Nikolai.Baranov.HDTVRip.AVC_(720p).mp4
Формат : MPEG-4
Профиль формата : Base Media
Идентификатор кодека : isom
Размер файла : 941 MiB
Продолжительность : 47mn 38s
Режим общего битрейта : Variable
Общий поток : 2 761 Kbps
Дата кодирования : UTC 2011-05-20 21:18:59
Дата пометки : UTC 2011-05-20 21:18:59
Программа кодирования : Lavf51.12.1

Video
Идентификатор : 1
Формат : AVC
Формат/Информация : Advanced Video Codec
Профиль формата : Baseline@L3.1
Параметр CABAC формата : No
Параметр ReFrames формата : 1 frame
Параметр GOP формата : M=1, N=12
Идентификатор кодека : avc1
Идентификатор кодека/Информация : Advanced Video Coding
Продолжительность : 47mn 38s
Вид битрейта : Variable
Битрейт : 2 503 Kbps
Максимальный битрейт : 3 000 Kbps
Ширина : 1 280 pixels
Высота : 720 pixels
Соотношение сторон : 16:9
Режим частоты кадров : Constant
Частота кадров : 29.970 fps
Частота кадров в оригинале : 24.000 fps
Цветовое пространство : YUV
Субдискретизация насыщенности : 4:2:0
Битовая глубина : 8 bits
Тип развёртки : Progressive
Бит/(Пиксели*Кадры) : 0.091
Размер потока : 853 MiB (91%)
Дата кодирования : UTC 2011-05-20 21:18:59
Дата пометки : UTC 2011-05-20 21:18:59

Audio
Идентификатор : 2
Формат : AAC
Формат/Информация : Advanced Audio Codec
Профиль формата : LC
Идентификатор кодека : 40
Продолжительность : 47mn 38s
Вид битрейта : Variable
Битрейт : 254 Kbps
Каналы : 6 channels
Расположение каналов : Front: L C R, Side: L R, LFE
Частота : 44.1 KHz
Метод сжатия : Lossy
Размер потока : 86.6 MiB (9%)
Дата кодирования : UTC 2011-05-20 21:18:59
Дата пометки : UTC 2011-05-20 21:18:59



General
Полное имя : F:\К И Н О\С Е Р И А Л Ы\С Ы Н Ы А Н А Р Х И И\Sons_Of_Anarchy_S01_-_S06_rus[LostFilm_TV]_DD5.1_x264_Nikolai.Baranov_HDTVRip-AVC_WEB-DLRip-AVC_(720p)\S03\Sons.of.Anarchy.s03e01.2010[LostFilm.TV]rus.x264.Nikolai.Baranov.WEB-DLRip.AVC_(720p).mp4
Формат : MPEG-4
Профиль формата : Base Media
Идентификатор кодека : isom
Размер файла : 1 021 MiB
Продолжительность : 51mn 52s
Режим общего битрейта : Variable
Общий поток : 2 751 Kbps
Дата кодирования : UTC 2011-08-14 20:31:26
Дата пометки : UTC 2011-08-14 20:31:26
Программа кодирования : Lavf51.12.1

Video
Идентификатор : 1
Формат : AVC
Формат/Информация : Advanced Video Codec
Профиль формата : Baseline@L3.1
Параметр CABAC формата : No
Параметр ReFrames формата : 1 frame
Параметр GOP формата : M=1, N=12
Идентификатор кодека : avc1
Идентификатор кодека/Информация : Advanced Video Coding
Продолжительность : 51mn 52s
Вид битрейта : Variable
Битрейт : 2 492 Kbps
Максимальный битрейт : 3 000 Kbps
Ширина : 1 280 pixels
Высота : 720 pixels
Соотношение сторон : 16:9
Режим частоты кадров : Constant
Частота кадров : 29.970 fps
Частота кадров в оригинале : 24.000 fps
Цветовое пространство : YUV
Субдискретизация насыщенности : 4:2:0
Битовая глубина : 8 bits
Тип развёртки : Progressive
Бит/(Пиксели*Кадры) : 0.090
Размер потока : 925 MiB (91%)
Дата кодирования : UTC 2011-08-14 20:31:26
Дата пометки : UTC 2011-08-14 20:31:26

Audio
Идентификатор : 2
Формат : AAC
Формат/Информация : Advanced Audio Codec
Профиль формата : LC
Идентификатор кодека : 40
Продолжительность : 51mn 52s
Вид битрейта : Variable
Битрейт : 254 Kbps
Каналы : 6 channels
Расположение каналов : Front: L C R, Side: L R, LFE
Частота : 44.1 KHz
Метод сжатия : Lossy
Размер потока : 94.2 MiB (9%)
Язык : Russian
Дата кодирования : UTC 2011-08-14 20:31:26
Дата пометки : UTC 2011-08-14 20:31:26



General
Полное имя : F:\К И Н О\С Е Р И А Л Ы\С Ы Н Ы А Н А Р Х И И\Sons_Of_Anarchy_S01_-_S06_rus[LostFilm_TV]_DD5.1_x264_Nikolai.Baranov_HDTVRip-AVC_WEB-DLRip-AVC_(720p)\S04\Sons.of.Anarchy.s04e01.2011[LostFilm.TV]rus.x264.Nikolai.Baranov.WEB-DLRip.AVC_(720p).mp4
Формат : MPEG-4
Профиль формата : Base Media
Идентификатор кодека : isom
Размер файла : 1.15 GiB
Продолжительность : 59mn 53s
Режим общего битрейта : Variable
Общий поток : 2 755 Kbps
Дата кодирования : UTC 2011-09-28 17:52:14
Дата пометки : UTC 2011-09-28 17:52:14
Программа кодирования : Lavf51.12.1

Video
Идентификатор : 1
Формат : AVC
Формат/Информация : Advanced Video Codec
Профиль формата : Baseline@L3.1
Параметр CABAC формата : No
Параметр ReFrames формата : 1 frame
Параметр GOP формата : M=1, N=12
Идентификатор кодека : avc1
Идентификатор кодека/Информация : Advanced Video Coding
Продолжительность : 59mn 53s
Вид битрейта : Variable
Битрейт : 2 493 Kbps
Максимальный битрейт : 3 000 Kbps
Ширина : 1 280 pixels
Высота : 720 pixels
Соотношение сторон : 16:9
Режим частоты кадров : Constant
Частота кадров : 29.970 fps
Частота кадров в оригинале : 24.000 fps
Цветовое пространство : YUV
Субдискретизация насыщенности : 4:2:0
Битовая глубина : 8 bits
Тип развёртки : Progressive
Бит/(Пиксели*Кадры) : 0.090
Размер потока : 1.04 GiB (90%)
Дата кодирования : UTC 2011-09-28 17:52:14
Дата пометки : UTC 2011-09-28 17:52:14

Audio
Идентификатор : 2
Формат : AAC
Формат/Информация : Advanced Audio Codec
Профиль формата : LC
Идентификатор кодека : 40
Продолжительность : 59mn 53s
Вид битрейта : Variable
Битрейт : 257 Kbps
Каналы : 6 channels
Расположение каналов : Front: L C R, Side: L R, LFE
Частота : 44.1 KHz
Метод сжатия : Lossy
Размер потока : 110 MiB (9%)
Язык : Russian
Дата кодирования : UTC 2011-09-28 17:52:14
Дата пометки : UTC 2011-09-28 17:52:14



General
Полное имя : F:\К И Н О\С Е Р И А Л Ы\С Ы Н Ы А Н А Р Х И И\Sons_Of_Anarchy_S01_-_S06_rus[LostFilm_TV]_DD5.1_x264_Nikolai.Baranov_HDTVRip-AVC_WEB-DLRip-AVC_(720p)\S05\Sons_оf_Anarchy_2012_S05е01_rus[LostFilm_TV]_DD5.1_x264_Nikolai.Baranov_WEB-DLRip.AVC_(720p).mp4
Формат : MPEG-4
Профиль формата : Base Media
Идентификатор кодека : isom
Размер файла : 1.50 GiB
Продолжительность : 1h 0mn
Режим общего битрейта : Variable
Общий поток : 3 578 Kbps
Дата кодирования : UTC 2012-09-17 03:13:36
Дата пометки : UTC 2012-09-17 03:13:36
Программа кодирования : Lavf51.12.1

Video
Идентификатор : 1
Формат : AVC
Формат/Информация : Advanced Video Codec
Профиль формата : Baseline@L3.1
Параметр CABAC формата : No
Параметр ReFrames формата : 1 frame
Параметр GOP формата : M=1, N=12
Идентификатор кодека : avc1
Идентификатор кодека/Информация : Advanced Video Coding
Продолжительность : 1h 0mn
Вид битрейта : Variable
Битрейт : 3 117 Kbps
Максимальный битрейт : 4 500 Kbps
Ширина : 1 280 pixels
Высота : 720 pixels
Соотношение сторон : 16:9
Режим частоты кадров : Constant
Частота кадров : 25.000 fps
Частота кадров в оригинале : 24.000 fps
Цветовое пространство : YUV
Субдискретизация насыщенности : 4:2:0
Битовая глубина : 8 bits
Тип развёртки : Progressive
Бит/(Пиксели*Кадры) : 0.135
Размер потока : 1.31 GiB (87%)
Дата кодирования : UTC 2012-09-17 03:13:36
Дата пометки : UTC 2012-09-17 03:13:36

Audio
Идентификатор : 2
Формат : AAC
Формат/Информация : Advanced Audio Codec
Профиль формата : LC
Идентификатор кодека : 40
Продолжительность : 1h 0mn
Вид битрейта : Variable
Битрейт : 456 Kbps
Каналы : 6 channels
Расположение каналов : Front: L C R, Side: L R, LFE
Частота : 44.1 KHz
Метод сжатия : Lossy
Размер потока : 196 MiB (13%)
Дата кодирования : UTC 2012-09-17 03:13:36
Дата пометки : UTC 2012-09-17 03:13:36



General
Полное имя : F:\К И Н О\С Е Р И А Л Ы\С Ы Н Ы А Н А Р Х И И\Sons_Of_Anarchy_S01_-_S06_rus[LostFilm_TV]_DD5.1_x264_Nikolai.Baranov_HDTVRip-AVC_WEB-DLRip-AVC_(720p)\S06\Sons_оf_Anarchy_2013_S06е01_rus[LostFilm_TV]_DD5.1_x264_Nikolai.Baranov_WEB-DLRip.AVC_(720p).mp4
Формат : MPEG-4
Профиль формата : Base Media
Идентификатор кодека : isom
Размер файла : 1.57 GiB
Продолжительность : 1h 6mn
Режим общего битрейта : Variable
Общий поток : 3 403 Kbps
Дата кодирования : UTC 2013-09-23 14:02:17
Дата пометки : UTC 2013-09-23 14:02:17
Программа кодирования : Lavf51.12.1

Video
Идентификатор : 1
Формат : AVC
Формат/Информация : Advanced Video Codec
Профиль формата : Baseline@L3.1
Параметр CABAC формата : No
Параметр ReFrames формата : 1 frame
Параметр GOP формата : M=1, N=12
Идентификатор кодека : avc1
Идентификатор кодека/Информация : Advanced Video Coding
Продолжительность : 1h 6mn
Вид битрейта : Variable
Битрейт : 3 130 Kbps
Максимальный битрейт : 4 500 Kbps
Ширина : 1 280 pixels
Высота : 720 pixels
Соотношение сторон : 16:9
Режим частоты кадров : Constant
Частота кадров : 25.000 fps
Частота кадров в оригинале : 24.000 fps
Цветовое пространство : YUV
Субдискретизация насыщенности : 4:2:0
Битовая глубина : 8 bits
Тип развёртки : Progressive
Бит/(Пиксели*Кадры) : 0.136
Размер потока : 1.45 GiB (92%)
Дата кодирования : UTC 2013-09-23 14:02:17
Дата пометки : UTC 2013-09-23 14:02:17

Audio
Идентификатор : 2
Формат : AAC
Формат/Информация : Advanced Audio Codec
Профиль формата : LC
Идентификатор кодека : 40
Продолжительность : 1h 6mn
Вид битрейта : Variable
Битрейт : 265 Kbps
Каналы : 6 channels
Расположение каналов : Front: L C R, Side: L R, LFE
Частота : 44.1 KHz
Метод сжатия : Lossy
Размер потока : 127 MiB (8%)
Дата кодирования : UTC 2013-09-23 14:02:17
Дата пометки : UTC 2013-09-23 14:02:17







































1 сезон

2 сезон

3 сезон

4 сезон

5 сезон

6 сезон

Внимание! Раздача пополняется по мере выхода новых серий!



Раздача ведётся путём добавления новых серий; при каждом добавлении создётся новый торрент.
Чтобы начать докачку новой серии, пользователям необходимо сделать следующее:
1. остановить скачивание,
2. удалить старый торрент у себя из клиента (старые серии удалять не надо),
3. скачать новый торрент и запустить его у себя в клиенте вместо старого, при этом указать клиенту путь в старую папку, куда и должно происходить скачивание новых серий.

Ваш клиент при этом должен произвести хеширование (проверку) старой папки (если не производит сам - помогите ему сделать это), и будет докачивать только те серии которых у вас ещё нет. Старые серии при этом не удаляются, а продолжают раздаваться!

Eсли вы уже удалили старые серии, то предотвратить повторную закачку старых серий можно, отжав галочку в соответсвующих местах при запуске нового торрента. По возможности, желательно не удалять старые серии как можно дольше, чтобы релизёр не столько продолжал раздавать старые серии, а смог сконцентрироваться на новых.

Совет для тех, кто не хочет ждать перехеширования:
Создайте ещё одну папку рядом с папкой сериала (рядом, а не в ней!!!). Каждую новую серию после удачной загрузки копируйте в новую папку так чтобы ваша основная папка всегда была пуста. Когда ваш новый торрент предложит вам закачать все файлы, выберете только последнюю. Для сидирования же укажите адрес новой папки.

Как закачать отдельный файл из торрента или докачать ранее пропущенные файлы торрента!

1. Открыть торрент
2. Снять галки с тех файлов торрента, которые мы не хотим закачивать. Оставляем только на нужных нам файлах (файле).
3. Нажать О.К.

В клиенте utorrent

Инструкция

1) Открыть торрент


2) Снять галки с тех файлов торрента, которые мы не хотим закачивать:

* либо вручную, снимая с каждого файла галку( скрин №1)
* либо, нажав кнопку "Снять метки (Select None)", сняв сразу со всех файлов(скрин №2)
№1

№2

Оставляем только на нужных нам файлах (файле).

3)Нажать О.К


Внимание!!! 24.10. 2013. РАЗДАЧА ОБНОВЛЕНА.ОБНОВИТЕ ТОРЕНТ ФАЙЛ.ПРИЯТНОГО ПРОСМОТРА.

Релиз от: Nikolai.Baranov










Скачать Сыны.Анархии.Sons.of.Anarchy.(Сезон.1-6.Серии.1-72.из.79).(Пэрис.Барклай.Гвинет.Хордер-Пэйтон.Стефен.Т.).[2008-2013.драма.криминал.HDTVRip-AVC.720р.WEB-DLRip-AVC.720р].[DD5.1].[MVO].[LostFilm].torrent без регистрации
Золото ЗОЛОТАЯ РАЗДАЧА! СКАЧАННОЕ НЕ ЗАСЧИТЫВАЕТСЯ! Золото
Дата: Зарегистрирован   [ Тип: внутренний ] Как тут cкачать?
MAGNET ссылка
MAGNET ссылка


Скачать .torrent

188 KB

Статус: проверено DHT
Скачан: торрент - 2998 раз, раздача полностью - 238 раз
Размер: 71,35 GB
Оценка:  4,9 (Голосов: 11)
Поблагодарили: 25
Поделиться ссылкой на эту раздачу с друзьями:
В контактеFacebookОдноклассникиTwitterLivejournalМой МирLiveinternet
 

 
Показать сообщения:    


Вы не можете начинать темы
Вы не можете отвечать на сообщения
Вы не можете редактировать свои сообщения
Вы не можете удалять свои сообщения
Вы не можете голосовать в опросах
Вы не можете прикреплять файлы к сообщениям
Вы можете скачивать файлы