Loading...
Error

Скачать Семейные ценности (Американская семейка) / Modern Family (Сезон 02) (Джейсон Уайнер) [2010, комедия, HDTVRip][Кубик в Кубе] торрент без регистрации

 
Статистика раздачи
Размер:  4,85 GB   |    Скачан:  4793 раза
Сидов:  1  [  0 KB/s  ]  
 
Автор Сообщение

МихаНЕзатор

[] 

Семейные ценности (Американская семейка) / Modern Family

Год выпуска: 2010
Страна: США, 20th Century Fox Televisi
Жанр: комедия
Продолжительность : ~ 22 минуты серия
Перевод: Профессиональный 2х-голосый закадровый (Кубик в Кубе)
Режиссёр: Джейсон Уайнер

В ролях:
Эд О’Нил, Джули Боуэн, Ти Баррелл, София Вергара, Джесси Тайлер Фергюсон, Эрик Стоунстрит, Сара Хайланд, Нолан Гоулд

Описание:
Джей Притчетт познакомился со сногсшибательной колумбийкой Глорией, когда она в бикини подавала ему коктейли на вечеринке, которую он устроил в день ухода егo первой жены. Теперь Джей и Глория женаты, и Джей изо всех сил старается не отставать от молодой красотки-жены и ее сына-подростка. В семье Клэр Дельгадо тоже не все гладко. Ее муж Фил — просто замечательный, но он считает, что «свой в доску» для своих детей, чем их сильно смущает. Митчелл Данфи и его партнер Камерон только что удочерили Лили, очаровательного младенца из Вьетнама.



Качество: HDTVRip
Формат: AVI
Видео кодек: XviD
Аудио кодек: MP3
Видео: 624x352 (1.77:1), 23.976 fps, XviD build 50 ~1008 kbps avg, 0.19 bit/pixel
Аудио : 48 kHz, MPEG Layer 3, 2 ch, ~256.00 kbps avg
Аудио : 48 kHz, MPEG Layer 3, 2 ch, ~128.00 kbps avg

АНОНСЫ ПОПУЛЯРНЫХ РАЗДАЧ
D:\Modern.Family.s02e01.k3.avi.DMF
General
Complete name : D:\Modern.Family.s02e01.k3.avi.DMF
Format : AVI
Format/Info : Audio Video Interleave
File size : 214 MiB
Duration : 21mn 14s
Overall bit rate : 1 412 Kbps
Writing application : VirtualDubMod 1.5.10.2 (build 2542/release)
Writing library : VirtualDubMod build 2542/release
Video #0
ID : 0
Format : MPEG-4 Visual
Format profile : AdvancedSimple@L5
Format settings, BVOP : Yes
Format settings, QPel : No
Format settings, GMC : No warppoints
Format settings, Matrix : Default (H.263)
Codec ID : XVID
Codec ID/Hint : XviD
Duration : 21mn 14s
Bit rate : 979 Kbps
Width : 624 pixels
Height : 352 pixels
Display aspect ratio : 16:9
Frame rate : 23.976 fps
Resolution : 24 bits
Colorimetry : 4:2:0
Scan type : Progressive
Bits/(Pixel*Frame) : 0.186
Stream size : 149 MiB (69%)
Writing library : XviD 1.2.1 (UTC 2008-12-04)
Audio #1
ID : 1
Format : MPEG Audio
Format version : Version 1
Format profile : Layer 3
Codec ID : 55
Codec ID/Hint : MP3
Duration : 21mn 14s
Bit rate mode : Constant
Bit rate : 256 Kbps
Channel(s) : 2 channels
Sampling rate : 48.0 KHz
Resolution : 16 bits
Stream size : 38.9 MiB (18%)
Alignment : Aligned on interleaves
Interleave, duration : 42 ms (1.00 video frame)
Interleave, preload duration : 504 ms
Audio #2
ID : 2
Format : MPEG Audio
Format version : Version 1
Format profile : Layer 3
Codec ID : 55
Codec ID/Hint : MP3
Duration : 21mn 14s
Bit rate mode : Variable
Bit rate : 128 Kbps
Channel(s) : 2 channels
Sampling rate : 48.0 KHz
Resolution : 16 bits
Stream size : 24.2 MiB (11%)
Alignment : Aligned on interleaves
Interleave, duration : 24 ms (0.58 video frame)
Interleave, preload duration : 600 ms



Скачать Семейные.ценности.(Американская.семейка).Modern.Family.(Сезон.02).(Джейсон.Уайнер).[2010.комедия.HDTVRip][Кубик.в.Кубе].torrent без регистрации
Золото ЗОЛОТАЯ РАЗДАЧА! СКАЧАННОЕ НЕ ЗАСЧИТЫВАЕТСЯ! Золото
Дата: Зарегистрирован   [ Тип: внутренний ] Как тут cкачать?
MAGNET ссылка
MAGNET ссылка


Скачать .torrent

26 KB

Статус: проверено DHT
Скачан: торрент - 4793 раз, раздача полностью - 33 раз
Размер: 4,85 GB
Оценка:  5 (Голосов: 1)
Поблагодарили: 1
Поделиться ссылкой на эту раздачу с друзьями:
В контактеFacebookОдноклассникиTwitterLivejournalМой МирLiveinternet
 

 

МихаНЕзатор

[] 

Раздача обновлена
 
Показать сообщения:    


Вы не можете начинать темы
Вы не можете отвечать на сообщения
Вы не можете редактировать свои сообщения
Вы не можете удалять свои сообщения
Вы не можете голосовать в опросах
Вы не можете прикреплять файлы к сообщениям
Вы можете скачивать файлы