Loading...
Error

Скачать Волшебная Миля / Miracle Mile (Стив Де Джарнат) [1988, фантастика, боевик, триллер, драма, мелодрама, DVDRip-AVC] [VO] + [Eng] торрент без регистрации

 
Статистика раздачи
Размер:  1,46 GB   |    Скачан:  145 раз
Сидов:  1  [  0 KB/s  ]  
 
Автор Сообщение

leon030982

[] 

Волшебная Миля
Miracle Mile

Страна: США
Жанр: фантастика, боевик, триллер, драма, мелодрама
Год выпуска: 1988
Продолжительность: 01:27:20
Перевод: Одноголосый закадровый
Cубтитры: русские, английские
Оригинальная аудиодорожка: английский
Режиссер: Стив Де Джарнат / Steve De Jarnatt
В ролях: Энтони Эдвардс, Мэри Уиннингхэм, Джон Агар, Лу Хэнкок, Майкелти Уильямсон, Келли Джо Минтер, Курт Фуллер, Дениз Кросби, Роберт Дукуй, О-Лан Джонс

Описание:
Герои — двое только что познакомившихся и полюбивших друг друга молодых людей — будут пытаться избежать страшной участи, но напрасно. Эта интонация мрачной и неизбежной безысходности пронизывает большую часть сюжета фильма. Она впервые появляется, когда Гарри Уошелло случайно услышал звонок в телефонной будке по соседству с кафе, куда он зашел перекусить, снял трубку аппарата и узнал от неизвестного собеседника, что через 15 минут начинается ядерная война и чуть больше, чем через час, весь мир полетит в тартарары. Приятное, черт побери, сообщение!..

IMDb: 6.90 (3 694)
Семпл: 23,6мб
Качество: {by big1987}
Формат видео: MKV
Видео: кодек: h.264, размер кадра: 712x480 @ 712x540, fps: 23,976, битрейт: 2012 Kbps, Bits/(Pixel*Frame): 0.246
Аудио 1: аудиокодек: AC3 2.0, 48 KHz, битрейт аудио: 192 кб/с - VO
Аудио 2: аудиокодек: AC3 2.0, 48 KHz, битрейт аудио: 192 кб/с - Eng
Формат субтитров: softsub (SRT)
Размер рипа: 1,46Gb
frame I:783 Avg QP:16.94 size: 51303
frame P:26988 Avg QP:19.39 size: 22178
frame B:97873 Avg QP:21.15 size: 6940
Format : Matroska
Format version : Version 2
File size : 1.46 GiB
Duration : 1h 27mn
Overall bit rate : 2 398 Kbps
Movie name : Волшебная Миля [1988, DVDRip/AVC] || big1987
Encoded date : UTC 2012-05-17 11:40:10
Writing application : mkvmerge v5.5.0 ('Healer') built on Apr 24 2012 23:47:03
Writing library : libebml v1.2.3 + libmatroska v1.3.0
Video
ID : 1
Format : AVC
Format/Info : Advanced Video Codec
Format profile : High@L3.1
Format settings, CABAC : Yes
Format settings, ReFrames : 9 frames
Codec ID : V_MPEG4/ISO/AVC
Duration : 1h 27mn
Bit rate : 2 012 Kbps
Width : 712 pixels
Height : 480 pixels
Display aspect ratio : 4:3
Frame rate : 23.976 fps
Color space : YUV
Chroma subsampling : 4:2:0
Bit depth : 8 bits
Scan type : Progressive
Bits/(Pixel*Frame) : 0.246
Stream size : 1.20 GiB (82%)
Title : Волшебная Миля [1988, DVDRip/AVC] || big1987
Writing library : x264 core 124 r2197 69a0443
Encoding settings : cabac=1 / ref=9 / deblock=1:-2:-2 / analyse=0x3:0x133 / me=umh / subme=10 / psy=1 / psy_rd=1.00:0.20 / mixed_ref=1 / me_range=32 / chroma_me=1 / trellis=2 / 8x8dct=1 / cqm=0 / deadzone=21,11 / fast_pskip=0 / chroma_qp_offset=-3 / threads=6 / sliced_threads=0 / nr=0 / decimate=0 / interlaced=0 / bluray_compat=0 / constrained_intra=0 / bframes=8 / b_pyramid=2 / b_adapt=2 / b_bias=0 / direct=3 / weightb=1 / open_gop=0 / weightp=2 / keyint=250 / keyint_min=23 / scenecut=40 / intra_refresh=0 / rc=2pass / mbtree=0 / bitrate=2012 / ratetol=1.0 / qcomp=0.60 / qpmin=0 / qpmax=69 / qpstep=4 / cplxblur=20.0 / qblur=0.5 / ip_ratio=1.40 / pb_ratio=1.30 / aq=1:1.00
Language : English
Default : Yes
Forced : No
Audio #1
ID : 2
Format : AC-3
Format/Info : Audio Coding 3
Mode extension : CM (complete main)
Codec ID : A_AC3
Duration : 1h 27mn
Bit rate mode : Constant
Bit rate : 192 Kbps
Channel(s) : 2 channels
Channel positions : Front: L R
Sampling rate : 48.0 KHz
Bit depth : 16 bits
Compression mode : Lossy
Stream size : 120 MiB (8%)
Title : VO [AC3 2.0@192kbps]
Language : Russian
Default : Yes
Forced : No
Audio #2
ID : 3
Format : AC-3
Format/Info : Audio Coding 3
Mode extension : CM (complete main)
Codec ID : A_AC3
Duration : 1h 27mn
Bit rate mode : Constant
Bit rate : 192 Kbps
Channel(s) : 2 channels
Channel positions : Front: L R
Sampling rate : 48.0 KHz
Bit depth : 16 bits
Compression mode : Lossy
Stream size : 120 MiB (8%)
Title : [AC3 2.0@192kbps]
Language : English
Default : No
Forced : No
Text #1
ID : 4
Format : UTF-8
Codec ID : S_TEXT/UTF8
Codec ID/Info : UTF-8 Plain Text
Language : Russian
Default : No
Forced : No
Text #2
ID : 5
Format : UTF-8
Codec ID : S_TEXT/UTF8
Codec ID/Info : UTF-8 Plain Text
Language : English
Default : No
Forced : No



Скачать Волшебная.Миля.Miracle.Mile.(Стив.Де.Джарнат).[1988.фантастика.боевик.триллер.драма.мелодрама.DVDRip-AVC].[VO].+.[Eng].torrent без регистрации
Золото ЗОЛОТАЯ РАЗДАЧА! СКАЧАННОЕ НЕ ЗАСЧИТЫВАЕТСЯ! Золото
Дата: Зарегистрирован   [ Тип: внутренний ] Как тут cкачать?
MAGNET ссылка
MAGNET ссылка


Скачать .torrent

15 KB

Статус: проверено DHT
Скачан: торрент - 145 раз, раздача полностью - 19 раз
Размер: 1,46 GB
Оценка:  - (Голосов: 0)
Поблагодарили: 0
Поделиться ссылкой на эту раздачу с друзьями:
В контактеFacebookОдноклассникиTwitterLivejournalМой МирLiveinternet
 

 
Показать сообщения:    


Вы не можете начинать темы
Вы не можете отвечать на сообщения
Вы не можете редактировать свои сообщения
Вы не можете удалять свои сообщения
Вы не можете голосовать в опросах
Вы не можете прикреплять файлы к сообщениям
Вы можете скачивать файлы