Loading...
Error

Скачать Дом у озера / The Lake House (Алехандро Агрести) [2006, фэнтези, драма, мелодрама, BDRip-AVC] [DUB] + [Sub Rus] торрент без регистрации

 
Статистика раздачи
Размер:  2,19 GB   |    Скачан:  229 раз

Полного источника не было: 23 минуты

 
Автор Сообщение

leon030982

[] 

Дом у озера / The Lake House
Страна: США, Австралия
Жанр: фэнтези, драма, мелодрама
Год выпуска: 2006
Продолжительность: 01:38:33
Перевод: Профессиональный (дублированный)
Cубтитры: Русские, Английские
Оригинальная аудиодорожка: английский
Режиссер: Алехандро Агрести / Alejandro Agresti
В ролях: Киану Ривз, Сандра Буллок, Кристофер Пламмер, Эбон Мосс-Бакрак, Виллеке ван Аммельрой, Дилан Уолш, Шохре Агдашлу, Линн Коллинз, Майк Бакарелла, Кевин Бреннан

Описание: Зима 2006 года. Ощутив необходимость изменить свою жизнь, доктор Кейт Форестер покидает свой необычный дом у озера в пригороде Иллинойса и устраивается на работу в чикагскую больницу. Единственное, о чем жалеет Кейт, так это о своем красивом доме с огромными окнами, который дарил ей душевное спокойствие. По дороге в город Кейт оставляет в почтовом ящике письмо, которое должен получить новый обитатель дома.
Когда же в него вселяется талантливый, но разочаровавшийся в жизни архитектор Алекс Уайлер, он видит этот дом совсем не таким, каким описала его в своем письме Кейт. Для Алекса это жилище имеет особое значение, поскольку оно было построено его отцом, знаменитым архитектором, который ради карьеры оставил свою семью. В итоге Алекс решает придать дому его первоначальный вид. Однажды странный случай заставляет Алекса написать ответное письмо Кейт; в процессе их переписки выясняется, что он живет в 2004 году, а она — в 2006-м. И лишь загадочный почтовый ящик служит неким соединяющим их мостиком.
В письмах они делятся друг с другом самым сокровенным, и постепенно между ними возникает заочный любовный роман. Испытывая неодолимое желание встретиться, Кейт и Алекс идут на все, чтобы добиться невозможного, рискуя при этом навсегда потерять друг друга…

Качество видео: BDRip-AVC (Исходник: The Lake House (2006) 1080p BD-Remux)
Формат видео: MKV
Видео: 1004x416 (2,40:1), 23.976 fps, 2542 kbps avg, 0.254 bit/pixel
Аудио 1: 48.0 KHz, 6 channels (Front: L C R, Side: L R, LFE), 384.00 kbps avg RUS
Аудио 2: 48.0 KHz, 2 channels (Front: L R), 192.00 kbps avg ENG
Формат субтитров: softsub (SRT)
raw [info]: 1004x416p 1:1 @ 2997/125 fps (cfr)
x264 [info]: using SAR=1/1
x264 [info]: using cpu capabilities: MMX2 SSE2Fast SSSE3 FastShuffle SSE4.2 AVX
x264 [info]: profile High, level 4.1
x264 [info]: frame I:834 Avg QP:13.98 size: 93575
x264 [info]: frame P:28943 Avg QP:17.37 size: 32663
x264 [info]: frame B:112010 Avg QP:20.92 size: 8045
x264 [info]: consecutive B-frames: 1.6% 1.6% 5.2% 18.5% 18.9% 41.3% 5.1% 4.2% 1.1% 1.6% 0.9%
x264 [info]: mb I I16..4: 16.3% 54.2% 29.5%
x264 [info]: mb P I16..4: 1.3% 9.3% 1.5% P16..4: 34.4% 24.2% 17.8% 2.6% 1.0% skip: 7.9%
x264 [info]: mb B I16..4: 0.1% 1.2% 0.1% B16..8: 39.8% 12.2% 3.8% direct: 6.0% skip:36.9% L0:41.7% L1:41.9% BI:16.4%
x264 [info]: 8x8 transform intra:76.6% inter:53.1%
x264 [info]: direct mvs spatial:99.9% temporal:0.1%
x264 [info]: coded y,uvDC,uvAC intra: 89.3% 87.7% 73.7% inter: 27.4% 23.4% 11.7%
x264 [info]: i16 v,h,dc,p: 53% 10% 15% 22%
x264 [info]: i8 v,h,dc,ddl,ddr,vr,hd,vl,hu: 11% 10% 11% 9% 13% 12% 12% 11% 12%
x264 [info]: i4 v,h,dc,ddl,ddr,vr,hd,vl,hu: 14% 12% 6% 8% 13% 12% 12% 11% 13%
x264 [info]: i8c dc,h,v,p: 48% 19% 17% 15%
x264 [info]: Weighted P-Frames: Y:5.3% UV:2.6%
x264 [info]: ref P L0: 43.1% 10.7% 16.9% 5.6% 5.5% 3.5% 3.5% 1.8% 1.9% 1.4% 1.5% 1.1% 1.2% 1.0% 1.2% 0.1%
x264 [info]: ref B L0: 74.6% 11.1% 4.5% 2.3% 1.6% 1.4% 1.2% 0.7% 0.6% 0.6% 0.5% 0.5% 0.3% 0.1%
x264 [info]: ref B L1: 92.2% 7.8%
x264 [info]: kb/s:2603.46
Общее
Уникальный идентификатор : 171006231484340533053604312111558029417 (0x80A69A291321A62DA53841E045B5F069)
Полное имя : D:The Lake House.2006.BDRip-AVC.by Matroska.mkv
Формат : Matroska
Версия формата : Version 2
Размер файла : 2,19 Гбайт
Продолжительность : 1 ч. 38 м.
Общий поток : 3181 Кбит/сек
Название фильма : The Lake House.2006.BDRip-AVC.by dOrOgOi
Дата кодирования : UTC 2012-05-10 16:23:30
Программа кодирования : mkvmerge v5.5.0 ('Healer') built on Apr 6 2012 21:43:24
Библиотека кодирования : libebml v1.2.3 + libmatroska v1.3.0
Видео
Идентификатор : 1
Формат : AVC
Формат/Информация : Advanced Video Codec
Профиль формата : High@L4.1
Параметр CABAC формата : Да
Параметр ReFrames формата : 15 кадров
Идентификатор кодека : V_MPEG4/ISO/AVC
Продолжительность : 1 ч. 38 м.
Битрейт : 2542 Кбит/сек
Ширина : 1004 пикселя
Высота : 416 пикселей
Соотношение сторон : 2,40:1
Частота кадров : 23,976 кадра/сек
Цветовое пространство : YUV
Субдискретизация насыщенности : 4:2:0
Битовая глубина : 8 бит
Тип развёртки : Прогрессивная
Бит/(Пиксели*Кадры) : 0.254
Размер потока : 1,75 Гбайт (80%)
Заголовок : The Lake House.2006.BDRip-AVC.by dOrOgOi
Библиотека кодирования : x264 core 119 r2106 07efeb4
Настройки программы : cabac=1 / ref=15 / deblock=1:-3:-2 / analyse=0x3:0x133 / me=umh / subme=10 / psy=1 / psy_rd=1.00:0.10 / mixed_ref=1 / me_range=32 / chroma_me=1 / trellis=2 / 8x8dct=1 / cqm=0 / deadzone=21,11 / fast_pskip=1 / chroma_qp_offset=-3 / threads=6 / sliced_threads=0 / nr=0 / decimate=1 / interlaced=0 / bluray_compat=0 / constrained_intra=0 / bframes=10 / b_pyramid=2 / b_adapt=2 / b_bias=0 / direct=3 / weightb=1 / open_gop=0 / weightp=2 / keyint=250 / keyint_min=23 / scenecut=40 / intra_refresh=0 / rc_lookahead=50 / rc=crf / mbtree=1 / crf=17.0 / qcomp=0.60 / qpmin=0 / qpmax=69 / qpstep=4 / ip_ratio=1.40 / aq=1:1.00
Язык : English
Default : Да
Forced : Нет
Аудио #1
Идентификатор : 2
Формат : AC-3
Формат/Информация : Audio Coding 3
Расширение режима : CM (complete main)
Параметр Endianness формата : Big
Идентификатор кодека : A_AC3
Продолжительность : 1 ч. 38 м.
Вид битрейта : Постоянный
Битрейт : 384 Кбит/сек
Каналы : 6 каналов
Расположение каналов : Front: L C R, Side: L R, LFE
Частота : 48,0 КГц
Битовая глубина : 16 бит
Метод сжатия : С потерями
Размер потока : 271 Мбайт (12%)
Заголовок : Russian (DUB)
Язык : Russian
Default : Да
Forced : Нет
Аудио #2
Идентификатор : 3
Формат : AC-3
Формат/Информация : Audio Coding 3
Расширение режима : CM (complete main)
Параметр Endianness формата : Big
Идентификатор кодека : A_AC3
Продолжительность : 1 ч. 38 м.
Вид битрейта : Постоянный
Битрейт : 192 Кбит/сек
Каналы : 2 канала
Расположение каналов : Front: L R
Частота : 48,0 КГц
Битовая глубина : 16 бит
Метод сжатия : С потерями
Размер потока : 135 Мбайт (6%)
Заголовок : English
Язык : English
Default : Нет
Forced : Нет
Текст #1
Идентификатор : 4
Формат : UTF-8
Идентификатор кодека : S_TEXT/UTF8
Идентификатор кодека/Информация : UTF-8 Plain Text
Заголовок : Russian
Язык : Russian
Default : Нет
Forced : Нет
Текст #2
Идентификатор : 5
Формат : UTF-8
Идентификатор кодека : S_TEXT/UTF8
Идентификатор кодека/Информация : UTF-8 Plain Text
Заголовок : English
Язык : English
Default : Нет
Forced : Нет



Скачать Дом.у.озера.The.Lake.House.(Алехандро.Агрести).[2006.фэнтези.драма.мелодрама.BDRip-AVC].[DUB].+.[Sub.Rus].torrent без регистрации
Золото ЗОЛОТАЯ РАЗДАЧА! СКАЧАННОЕ НЕ ЗАСЧИТЫВАЕТСЯ! Золото
Дата: Зарегистрирован   [ Тип: внутренний ] Как тут cкачать?
MAGNET ссылка
MAGNET ссылка


Скачать .torrent

12 KB

Статус: проверено DHT
Скачан: торрент - 229 раз, раздача полностью - 186 раз
Размер: 2,19 GB
Оценка:  - (Голосов: 0)
Поблагодарили: 2
Поделиться ссылкой на эту раздачу с друзьями:
В контактеFacebookОдноклассникиTwitterLivejournalМой МирLiveinternet
 

 
Показать сообщения:    


Вы не можете начинать темы
Вы не можете отвечать на сообщения
Вы не можете редактировать свои сообщения
Вы не можете удалять свои сообщения
Вы не можете голосовать в опросах
Вы не можете прикреплять файлы к сообщениям
Вы можете скачивать файлы