Loading...
Error

Скачать Копы-новобранцы / Rookie Blue (Сезон 2 полный) (Дэвид Веллингтон, Джон Фосетт, Стив Димарко) [2011 г., драма, криминал, WEB-DL] [720p] [Diva Universal] торрент без регистрации

 
Статистика раздачи
Размер:  17,94 GB   |    Скачан:  2621 раз
Сидов:  1  [  0 KB/s  ]  
 
Автор Сообщение

leon030982

[] 



Копы-новобранцы / Rookie Blue


Год выпуска: 2011
Страна: США, Канада | ABC
Жанр: Драма, криминал
Продолжительность: ~ 42 минуты
Перевод: Профессиональный (многоголосый, закадровый) - Diva Universal
Субтитры: Нет
Режиссёр: Дэвид Веллингтон / David Wellington, Джон Фосетт / John Fawcett, Стив Димарко / Steve DiMarco и др.
В ролях: Мисси Перегрим, Энука Окума, Трэвис Милн, Шарлотта Салливан, Ноам Дженкинс, Мелани Николллз-Кинг, Бен Басс, Грегори Смит и др.
Описание: Эти новички вместе учились в полицейской академии. Они вместе зубрили правила, вместе дрались, пили и спали. А теперь им предстоит вместе работать и на собственном опыте познавать самые тяжелые стороны этой профессии. Они везде первые – первые на месте преступления и перед лицом опасности. Они сидят за рулем полицейской машины, патрулируя свой район, и никогда не знают, что принесет им следующий день – мертвое тело, жестокое проникновение в дом, аресты клиентов проституток или наркоторговцев. «Копы» — это драма об испытаниях и триумфах, дружбе и соперничестве в большой семье, состоящей из новичков, их возлюбленных, лучших друзей и друзей-врагов. Эта компания двадцатилетних вскоре узнает на своем горьком опыте, что как бы долго и усердно ты не учился, это не сможет подготовить тебя к настоящей работе… и к настоящей жизни.
Качество: WEB-DL 720p
Формат: MKV
Видео кодек: H.264
Аудио кодек: AC3
Видео: 1280x720 (16:9), 23.976 fps, ~4000 kbps, ~0.180 bit/pixel
Аудио Rus: 48 kHz, 2 ch, ~192 kbps |Diva Universal|
Аудио Eng: 48 kHz, 6 ch, ~384 kbps |Original|

Озвучка: Diva Universal
Работа со звуком: jugin, Baggio
/ Сэмпл / ImDB[/color] / Кинопоиск

«Butterflies»
«Might Have Been»
«Bad Moon Rising»
«Heart & Sparks»
«Stung»
«In Plain View»
«The One That Got Away»
«Monster»
«Brotherhood»
«Best Laid Plans»
«A Little Faith»
«On the Double»
«God's Good Grace»
[b]Общее
Уникальный идентификатор : 215073692254071691054492358786508225395 (0xA1CDAFB8F8EC6285A28E88873BD57B73)
Полное имя : F:\Rookie.Blue.s02.720p.WEB-DL.Rus.Eng\rookie.blue.s02e01.web-dl.720p.rus.eng. СПАМ
Формат : Matroska
Версия формата : Version 2
Размер файла : 1,38 Гбайт
Продолжительность : 41 м.
Общий поток : 4723 Кбит/сек
Дата кодирования : UTC 2011-09-24 08:20:52
Программа кодирования : mkvmerge v2.9.0 ('Moanin'') built on May 22 2009 17:46:31
Библиотека кодирования : libebml v0.7.7 libmatroska v0.8.1
Видео
Идентификатор : 1
Формат : AVC
Формат/Информация : Advanced Video Codec
Профиль формата : High@L3.1
Параметр CABAC формата : Нет
Параметр ReFrames формата : 2 кадра
Параметры GOP формата : M=2, N=51
Идентификатор кодека : V_MPEG4/ISO/AVC
Продолжительность : 41 м.
Битрейт : 4053 Кбит/сек
Ширина : 1280 пикс.
Высота : 720 пикс.
Соотношение сторон : 16:9
Частота кадров : 23,976 кадр/сек
Цветовое пространство : YUV
Подвыборка цветности : 4:2:0
Битовая глубина : 8 бит
Тип развёртки : Прогрессивная
Бит/(Пиксели*Кадры) : 0.184
Размер потока : 1,19 Гбайт (86%)
Язык : English
Основные цвета : BT.709-5, BT.1361, IEC 61966-2-4, SMPTE RP177
Характеристики трансфера : BT.709-5, BT.1361
Коэффициенты матрицы : BT.709-5, BT.1361, IEC 61966-2-4 709, SMPTE RP177
Аудио #1
Идентификатор : 2
Формат : AC-3
Формат/Информация : Audio Coding 3
Расширение режима : CM (complete main)
Идентификатор кодека : A_AC3
Продолжительность : 41 м.
Вид битрейта : Постоянный
Битрейт : 192 Кбит/сек
Каналы : 2 канала
Расположение каналов : Front: L R
Частота : 48,0 КГц
Битовая глубина : 16 бит
Метод сжатия : С потерями
Размер потока : 57,5 Мбайт (4%)
Язык : Russian
Аудио #2
Идентификатор : 3
Формат : AC-3
Формат/Информация : Audio Coding 3
Расширение режима : CM (complete main)
Идентификатор кодека : A_AC3
Продолжительность : 41 м.
Вид битрейта : Постоянный
Битрейт : 384 Кбит/сек
Каналы : 6 каналов
Расположение каналов : Front: L C R, Side: L R, LFE
Частота : 48,0 КГц
Битовая глубина : 16 бит
Метод сжатия : С потерями
Размер потока : 115 Мбайт (8%)
Язык : English





Скачать Копы-новобранцы.Rookie.Blue.(Сезон.2.полный).(Дэвид.Веллингтон.Джон.Фосетт.Стив.Димарко).[2011.г.драма.криминал.WEB-DL].[720p].[Diva.Universal].torrent без регистрации
Золото ЗОЛОТАЯ РАЗДАЧА! СКАЧАННОЕ НЕ ЗАСЧИТЫВАЕТСЯ! Золото
Дата: Зарегистрирован   [ Тип: внутренний ] Как тут cкачать?
MAGNET ссылка
MAGNET ссылка


Скачать .torrent

91 KB

Статус: проверено DHT
Скачан: торрент - 2621 раз, раздача полностью - 28 раз
Размер: 17,94 GB
Оценка:  - (Голосов: 0)
Поблагодарили: 0
Поделиться ссылкой на эту раздачу с друзьями:
В контактеFacebookОдноклассникиTwitterLivejournalМой МирLiveinternet
 

 
Показать сообщения:    


Вы не можете начинать темы
Вы не можете отвечать на сообщения
Вы не можете редактировать свои сообщения
Вы не можете удалять свои сообщения
Вы не можете голосовать в опросах
Вы не можете прикреплять файлы к сообщениям
Вы можете скачивать файлы