Loading...
Error

Скачать Копы-новобранцы / Rookie Blue (Сезон 1 полный)(Дэвид Уэллингтон, Чарльз Бинами)[2010 г., драма, криминал, HDRip] [400p] [DIVA Universal] торрент без регистрации

 
Статистика раздачи
Размер:  9,21 GB   |    Скачан:  5443 раза
Сидов:  1  [  0 KB/s  ]  
 
Автор Сообщение

leon030982

[] 

Копы-новобранцы / Rookie Blue
Год выпуска: 2010
Страна: США

Жанр: драма, криминал
Продолжительность: 45 мин
Перевод: Профессиональный многоголосый закадровый(DIVA Universal)
Режиссер: Дэвид Уэллингтон, Чарльз Бинами
Субтитры: англ
В ролях:
Мисси Перегрим (Andy McNally), Энука Окума (Traci Nash), Трэвис Милн (Chris Diaz), Шарлотта Салливан (Gail Peck), Ноам Дженкинс (Detective Jerry Barber), Мелани Николллз-Кинг (Noelle Williams), Бен Басс (Sam Swarek), Грегори Смит (Dov Epstein) и др.
Описание:
Эти новички вместе учились в полицейской академии. Они вместе зубрили правила, вместе дрались, пили и спали. А теперь им предстоит вместе работать и на собственном опыте познавать самые тяжелые стороны этой профессии. Они везде первые – первые на месте преступления и перед лицом опасности. Они сидят за рулем полицейской машины, патрулируя свой район, и никогда не знают, что принесет им следующий день – мертвое тело, жестокое проникновение в дом, аресты клиентов проституток или наркоторговцев. «Копы» — это драма об испытаниях и триумфах, дружбе и соперничестве в большой семье, состоящей из новичков, их возлюбленных, лучших друзей и друзей-врагов. Эта компания двадцатилетних вскоре узнает на своем горьком опыте, что как бы долго и усердно ты не учился, это не сможет подготовить тебя к настоящей работе… и к настоящей жизни.

Качество: HDRip
Формат: AVI

Видео: 720x400 (1.80:1), 23.976 fps, XviD build 50 ~1995 kbps avg, 0.29 bit/pixel
Аудио Rus: 48 kHz, AC3 Dolby Digital, 2/0 (L,R) ch, ~192.00 kbps avg
Аудио Eng: 48 kHz, AC3 Dolby Digital, 2/0 (L,R) ch, ~192.00 kbps avg
Озвучка: DIVA Universal
Работа со звуком: jugin

Рип: ЛП


General
Complete name : F:\Фтп 2\Work\NovaFilm\Rookie Blue Season 1\Rookie.Blue.s01e01.rus.eng.avi
Format : AVI
Format/Info : Audio Video Interleave
File size : 717 MiB
Duration : 41mn 51s
Overall bit rate : 2 394 Kbps
Writing application : VirtualDubMod 1.5.10.2 (build 2540/release)
Writing library : VirtualDubMod build 2540/release
Video

ID : 0
Format : MPEG-4 Visual
Format profile : Advanced Simple@L5
Format settings, BVOP : 1
Format settings, QPel : No
Format settings, GMC : No warppoints
Format settings, Matrix : Default (MPEG)
Codec ID : XVID
Codec ID/Hint : XviD
Duration : 41mn 51s
Bit rate : 1 996 Kbps
Width : 720 pixels
Height : 400 pixels
Display aspect ratio : 16:9
Frame rate : 23.976 fps
Color space : YUV
Chroma subsampling : 4:2:0
Bit depth : 8 bits
Scan type : Progressive
Compression mode : Lossy
Bits/(Pixel*Frame) : 0.289
Stream size : 598 MiB (83%)
Writing library : XviD 1.2.1 (UTC 2008-12-04)
Audio #1
ID : 1
Format : AC-3
Format/Info : Audio Coding 3
Mode extension : CM (complete main)
Codec ID : 2000
Duration : 41mn 51s
Bit rate mode : Constant
Bit rate : 192 Kbps
Channel(s) : 2 channels
Channel positions : Front: L R
Sampling rate : 48.0 KHz
Bit depth : 16 bits
Compression mode : Lossy
Stream size : 57.5 MiB (8%)
Alignment : Split accross interleaves
Interleave, duration : 42 ms (1.00 video frame)
Interleave, preload duration : 500 ms
Audio #2
ID : 2
Format : AC-3
Format/Info : Audio Coding 3
Mode extension : CM (complete main)
Codec ID : 2000
Duration : 41mn 51s
Bit rate mode : Constant
Bit rate : 192 Kbps
Channel(s) : 2 channels
Channel positions : Front: L R
Sampling rate : 48.0 KHz
Bit depth : 16 bits
Compression mode : Lossy
Stream size : 57.5 MiB (8%)
Alignment : Split accross interleaves
Interleave, duration : 42 ms (1.00 video frame)
Interleave, preload duration : 500 ms
Свежая краска(Fresh Paint)
Ретроградный Меркурий(Mercury Retrograde)
Большой бой(Fite Nite)
Новые ошибки(Signals Crossed)
Средь бела дня(Broad Daylight)
Неуязвимый(Bullet Proof)
Жара и озабоченные(Hot & Bothered)
Почетный список(Honor Roll)
Подружка года(Girlfriend of the Year)
Большой пятицентовик(Big Nickel)
Служить или защищать(To Serve or Protect)
Печаль(In Blue)
Демонтаж(Takedown)



Скачать Копы-новобранцы.Rookie.Blue.(Сезон.1.полный)(Дэвид.Уэллингтон.Чарльз.Бинами)[2010.г.драма.криминал.HDRip].[400p].[DIVA.Universal].torrent без регистрации
Золото ЗОЛОТАЯ РАЗДАЧА! СКАЧАННОЕ НЕ ЗАСЧИТЫВАЕТСЯ! Золото
Дата: Зарегистрирован   [ Тип: внутренний ] Как тут cкачать?
MAGNET ссылка
MAGNET ссылка


Скачать .torrent

25 KB

Статус: проверено DHT
Скачан: торрент - 5443 раз, раздача полностью - 10 раз
Размер: 9,21 GB
Оценка:  - (Голосов: 0)
Поблагодарили: 0
Поделиться ссылкой на эту раздачу с друзьями:
В контактеFacebookОдноклассникиTwitterLivejournalМой МирLiveinternet
 

 
Показать сообщения:    


Вы не можете начинать темы
Вы не можете отвечать на сообщения
Вы не можете редактировать свои сообщения
Вы не можете удалять свои сообщения
Вы не можете голосовать в опросах
Вы не можете прикреплять файлы к сообщениям
Вы можете скачивать файлы