Loading...
Error

Скачать Копы-новобранцы / Rookie Blue (Сезон 1 полный) (Дэвид Веллингтон, Джон Фосетт, Стив Димарко) [2010 г., драма, криминал, HDRip] [Diva Universal] торрент без регистрации

 
Статистика раздачи
Размер:  4,95 GB   |    Скачан:  2673 раза
Сидов:  1  [  0 KB/s  ]  
 
Автор Сообщение

leon030982

[] 



Копы-новобранцы / Rookie Blue


Год выпуска: 2010
Страна: США, Канада
Жанр: Драма, Криминал
Продолжительность: ~ 42 минуты
Перевод: Профессиональный (многоголосый закадровый) - Diva Universal
Субтитры: Нет
Режиссёр: Дэвид Веллингтон, Джон Фосетт, Стив Димарко
В ролях: Мисси Перегрим, Энука Окума, Трэвис Милн, Шарлотта Салливан, Ноам Дженкинс, Мелани Николллз-Кинг, Бен Басс, Грегори Смит и др.
Описание: Эти новички вместе учились в полицейской академии. Они вместе зубрили правила, вместе дрались, пили и спали. А теперь им предстоит вместе работать и на собственном опыте познавать самые тяжелые стороны этой профессии. Они везде первые – первые на месте преступления и перед лицом опасности. Они сидят за рулем полицейской машины, патрулируя свой район, и никогда не знают, что принесет им следующий день – мертвое тело, жестокое проникновение в дом, аресты клиентов проституток или наркоторговцев. «Копы» — это драма об испытаниях и триумфах, дружбе и соперничестве в большой семье, состоящей из новичков, их возлюбленных, лучших друзей и друзей-врагов. Эта компания двадцатилетних вскоре узнает на своем горьком опыте, что как бы долго и усердно ты не учился, это не сможет подготовить тебя к настоящей работе… и к настоящей жизни.
Качество: HDRip
Формат: AVI
Видео кодек: XviD
Аудио кодек: MP3
Видео: 640x352 (16:9), 23.976 fps, ~1000 kbps, ~0.180 bit/pixel
Аудио Rus: 48 kHz, 2 ch, ~128 kbps |Diva Universal|
Аудио Eng: 48 kHz, 2 ch, ~144 kbps |Original|

Монтаж и работа со звуком: jugin
/ Сэмпл / ImDB / Кинопоиск
01 - «[color=#4682B4]Fresh Paint»
02
- «Mercury Retrograde»
03[/color] - «Fite Nite»
04 - «Signals Crossed»
05 - «Broad Daylight»
06 - «Bullet Proof»
07 - «Hot & Bothered»
08 - «Honor Roll»
09 - «Girlfriend of the Year»
10 - «Big Nickel»
11 - «To Serve or Protect»
12 - «In Blue»
13 - «Takedown»
Общее
Полное имя : F:\rookie.blue.s01.bdrip.rus.eng. СПАМ
Формат : AVI
Формат/Информация : Audio Video Interleave
Размер файла : 390 Мбайт
Продолжительность : 41 м.
Общий поток : 1301 Кбит/сек
Программа кодирования : VirtualDubMod 1.5.10.2 (build 2542/release)
Библиотека кодирования : VirtualDubMod build 2542/release
Видео

Идентификатор : 0
Формат : MPEG-4 Visual
Профиль формата : Advanced Simple@L5
Параметр BVOP формата : 1
Параметр QPel формата : Нет
Параметр GMC формата : Без точки перехода
Параметр матрицы формата : Default (H.263)
Режим смешивания : Сжатый битовый поток
Идентификатор кодека : XVID
Идентификатор кодека/Подсказка : XviD
Продолжительность : 41 м.
Битрейт : 1015 Кбит/сек
Ширина : 640 пикс.
Высота : 352 пикс.
Соотношение сторон : 16:9
Частота кадров : 23,976 кадр/сек
Цветовое пространство : YUV
Подвыборка цветности : 4:2:0
Битовая глубина : 8 бит
Тип развёртки : Прогрессивная
Метод сжатия : С потерями
Бит/(Пиксели*Кадры) : 0.188
Размер потока : 304 Мбайт (78%)
Библиотека кодирования : XviD 1.2.1 (UTC 2008-12-04)
Аудио #1
Идентификатор : 1
Формат : MPEG Audio
Версия формата : Version 1
Профиль формата : Layer 3
Режим : Joint stereo
Расширение режима : MS Stereo
Идентификатор кодека : 55
Идентификатор кодека/Подсказка : MP3
Продолжительность : 41 м.
Вид битрейта : Постоянный
Битрейт : 128 Кбит/сек
Каналы : 2 канала
Частота : 48,0 КГц
Метод сжатия : С потерями
Размер потока : 38,3 Мбайт (10%)
Выравнивание : Соединение по промежуткам
Продолжительность промежутка : 42 мс. (1,00 видеокадр)
Время предзагрузки промежутка : 504 ms
Аудио #2
Идентификатор : 2
Формат : MPEG Audio
Версия формата : Version 1
Профиль формата : Layer 3
Режим : Joint stereo
Расширение режима : MS Stereo
Идентификатор кодека : 55
Идентификатор кодека/Подсказка : MP3
Продолжительность : 41 м.
Вид битрейта : Переменный
Битрейт : 144 Кбит/сек
Каналы : 2 канала
Частота : 48,0 КГц
Метод сжатия : С потерями
Размер потока : 42,1 Мбайт (11%)
Выравнивание : Соединение по промежуткам
Продолжительность промежутка : 24 мс. (0,58 видеокадр)
Время предзагрузки промежутка : 240 ms
Библиотека кодирования : LAME3.98
Настройки программы : -m j -V 4 -q 3 -lowpass 17.5 --abr 144



Скачать Копы-новобранцы.Rookie.Blue.(Сезон.1.полный).(Дэвид.Веллингтон.Джон.Фосетт.Стив.Димарко).[2010.г.драма.криминал.HDRip].[Diva.Universal].torrent без регистрации
Золото ЗОЛОТАЯ РАЗДАЧА! СКАЧАННОЕ НЕ ЗАСЧИТЫВАЕТСЯ! Золото
Дата: Зарегистрирован   [ Тип: внутренний ] Как тут cкачать?
MAGNET ссылка
MAGNET ссылка


Скачать .torrent

26 KB

Статус: проверено DHT
Скачан: торрент - 2673 раз, раздача полностью - 39 раз
Размер: 4,95 GB
Оценка:  - (Голосов: 0)
Поблагодарили: 3
Поделиться ссылкой на эту раздачу с друзьями:
В контактеFacebookОдноклассникиTwitterLivejournalМой МирLiveinternet
 

 
Показать сообщения:    


Вы не можете начинать темы
Вы не можете отвечать на сообщения
Вы не можете редактировать свои сообщения
Вы не можете удалять свои сообщения
Вы не можете голосовать в опросах
Вы не можете прикреплять файлы к сообщениям
Вы можете скачивать файлы