Loading...
Error

Скачать Здесь курят / Thank You for Smoking (Джейсон Рейтман) [2005, комедия, драма, HDTVRip] [DVO] (отр. Wedis) торрент без регистрации

 
Статистика раздачи
Размер:  1,25 GB   |    Скачан:  120 раз
Сидов:  1  [  0 KB/s  ]  
 
Автор Сообщение

leon030982

[] 

Здесь курят / Thank You for Smoking
Страна: США
Жанр: драма, комедия
Год выпуска: 2005
Продолжительность: 01:32:10
Перевод: Профессиональный (двухголосый закадровый) (отр. Wedis)
Cубтитры: нет
Оригинальная аудиодорожка: английский
Режиссер: Джейсон Рейтман / Jason Reitman

В ролях: Аарон Экхарт, Мария Белло, Кэмерон Брайт, Адам Броуди, Сэм Эллиотт, Кэйти Холмс, Дэвид Кехнер, Уильям Х. Мэйси, Дж.К. Симмонс, Роберт Дюволл, Ким Диккенс, Роб Лоуи, Тодд Луисо, Деннис Миллер, Аарон Ластиг, Майкл Мэнтелл, Дэниэл Трэвис, Кэйти Уинслоу, Эрл Биллингс, Тимоти Даулинг, Мелора Хардин

Описание: История пробивного PR-агента крупной табачной кампании (Аарон Экхарт), основная работа которого – противостоять активным антитабачным настроениям, зарождающимся в обществе и политикам, пытающимся ввести различные запреты и ограничения на торговлю сигаретами. Он успешно проповедует безвредность курения на телевидении, осуществляет PR-кампании в прессе и занимается продвижением образов курильщиков в кино. Карьера идет в гору, но в какой-то момент он начинает задумываться, в каком свете он предстает перед своей семьей и своим маленьким сыном.

Доп. информация: Российская премьера: 9 ноября 2006 года!
Сэмпл: http://narod.ru/disk/49630635001.d55570a67c0088e16d...des_kuryat_HDrip .avi
Качество видео: HDTVRip
Формат видео: AVI
Видео: XviD, 720x400, 23.976 fps, 1808 kbps, 0.262 b/(p*f)
Аудио: MPEG Layer 3, 48 kHz, ~128.00 kbps avg, 2 ch
Общее
Полное имя : C:\Users\Стас\Desktop\zdes_kuriat_[ СПАМ
Формат : AVI
Формат/Информация : Audio Video Interleave
Размер файла : 1,25 Гбайт
Продолжительность : 1 ч. 32 м.
Общий поток : 1941 Кбит/сек
Название фильма : Zdes'.kurjat.HDTVRip
Название фильма/Ссылка : torrents.ru
Кодирование произвёл : KAE
Жанр : комедийный
Программа кодирования : VirtualDubMod 1.5.10.3 | www.virtualdub-fr.org || (build 2550/release)
Библиотека кодирования : VirtualDubMod build 2550/release
Формат оригинала/Имя : фильм
Примечание : HDTVRip by KAE
Видео
Идентификатор : 0
Формат : MPEG-4 Visual
Профиль формата : Advanced Simple@L5
Параметр BVOP формата : 1
Параметр QPel формата : Нет
Параметр GMC формата : Без точки перехода
Параметр матрицы формата : Выборочная
Идентификатор кодека : XVID
Идентификатор кодека/Подсказка : XviD
Продолжительность : 1 ч. 32 м.
Битрейт : 1808 Кбит/сек
Ширина : 720 пикселей
Высота : 400 пикселей
Соотношение сторон : 16:9
Частота кадров : 23,976 кадра/сек
Цветовое пространство : YUV
Субдискретизация насыщенности : 4:2:0
Битовая глубина : 8 бит
Тип развёртки : Прогрессивная
Метод сжатия : С потерями
Бит/(Пиксели*Кадры) : 0.262
Размер потока : 1,16 Гбайт (93%)
Библиотека кодирования : XviD 1.2.0.dev47 (UTC 2006-11-01)
Аудио
Идентификатор : 1
Формат : MPEG Audio
Версия формата : Version 1
Профиль формата : Layer 3
Режим : Joint stereo
Расширение режима : MS Stereo
Идентификатор кодека : 55
Идентификатор кодека/Подсказка : MP3
Продолжительность : 1 ч. 32 м.
Вид битрейта : Постоянный
Битрейт : 128 Кбит/сек
Каналы : 2 канала
Частота : 48,0 КГц
Метод сжатия : С потерями
Размер потока : 84,4 Мбайт (7%)
Выравнивание : Соединение по промежуткам
Продолжительность промежутка : 2668 мс. (63,97 видеокадра)
Время предзагрузки промежутка : 72 мс.
Библиотека кодирования : LAME3.97bЄ
Язык : c



Скачать Здесь.курят.Thank.You.for.Smoking.(Джейсон.Рейтман).[2005.комедия.драма.HDTVRip].[DVO].(отр.Wedis).torrent без регистрации
Золото ЗОЛОТАЯ РАЗДАЧА! СКАЧАННОЕ НЕ ЗАСЧИТЫВАЕТСЯ! Золото
Дата: Зарегистрирован   [ Тип: внутренний ] Как тут cкачать?
MAGNET ссылка
MAGNET ссылка


Скачать .torrent

13 KB

Статус: проверено DHT
Скачан: торрент - 120 раз, раздача полностью - 1 раз
Размер: 1,25 GB
Оценка:  - (Голосов: 0)
Поблагодарили: 0
Поделиться ссылкой на эту раздачу с друзьями:
В контактеFacebookОдноклассникиTwitterLivejournalМой МирLiveinternet
 

 
Показать сообщения:    


Вы не можете начинать темы
Вы не можете отвечать на сообщения
Вы не можете редактировать свои сообщения
Вы не можете удалять свои сообщения
Вы не можете голосовать в опросах
Вы не можете прикреплять файлы к сообщениям
Вы можете скачивать файлы