Loading...
Error

Скачать Моя супер-бывшая / My Super Ex-Girlfriend (Айвен Райтман) [2006, фантастика, комедия, BDRip] [DVO] торрент без регистрации

 
Статистика раздачи
Размер:  1,5 GB   |    Скачан:  133 раза
Сидов:  1  [  0 KB/s  ]  
 
Автор Сообщение

leon030982

[] 

Моя супер-бывшая / My Super Ex-Girlfriend
Серия "Антология Tycoon"
Страна: США
Жанр: фантастика, комедия
Год выпуска: 2006
Продолжительность: 01:36:33
Перевод: Профессиональный (двухголосый закадровый)
Cубтитры: нет
Режиссер: Айвен Райтман / Ivan Reitman
В ролях: Ума Турман, Люк Уилсон, Анна Фэрис, Рэйн Уилсон, Эдди Иззард, Стелио Саванте, Майк Иорио, Марк Консуэлос, Ванда Сайкес, Маргарет Энн Флоренс

Описание: Расставаться всегда тяжело, но иногда это еще и невероятно опасно. Встретив красавицу Дженни Джонсон, Мэтт Сондерс думает, что он наконец-то нашел женщину своей мечты. Однако, убедившись в том, что она настоящий супермен в юбке, Мэтт решает с ней расстаться, тем более что Дженни становится чересчур навязчивой и требовательной.
Но оказалось, что порвать с женщиной-суперменом не так-то легко. Чувствуя себя униженной и оскорбленной, Дженни использует все свои сверхъестественные способности, чтобы не только положить конец развивающемуся роману Мэтта с его сослуживицей Ханной, но и превратить жизнь своего «бывшего» в сущий ад…

Сэмпл: http://multi-up.com/704265
Доп. информация: В трех местах небольшие вставки из дубляжа
Качество видео: BDRip
Формат видео: AVI
Видео: 720x304 (2.37:1), 23.976 fps, XviD build 50 ~1767 kbps avg, 0.34 bit/pixel
Аудио: 48 kHz, AC3 Dolby Digital, 3/2 (L,C,R,l,r) + LFE ch, ~448.00 kbps avg
Общее
Полное имя : H:\my_exgirlfrind_tycoon.avi
Формат : AVI
Формат/Информация : Audio Video Interleave
Размер файла : 1,50 Гбайт
Продолжительность : 1 ч. 36 м.
Общий поток : 2225 Кбит/сек
Название фильма : Moya super-byvshaya (2006) BDRip
Режиссёр : KalliostroV
Программа кодирования : VirtualDubMod 1.5.10.2 (build 2540/release)
Библиотека кодирования : VirtualDubMod build 2540/release
Правообладатель : www.hqclub.net
Примечание : 03.01.2010
Видео
Идентификатор : 0
Формат : MPEG-4 Visual
Профиль формата : Advanced Simple@L5
Параметр BVOP формата : 1
Параметр QPel формата : Нет
Параметр GMC формата : Без точки перехода
Параметр матрицы формата : Default (MPEG)
Идентификатор кодека : XVID
Идентификатор кодека/Подсказка : XviD
Продолжительность : 1 ч. 36 м.
Битрейт : 1768 Кбит/сек
Ширина : 720 пикселей
Высота : 304 пикселя
Соотношение сторон : 2,35:1
Частота кадров : 23,976 кадра/сек
Цветовое пространство : YUV
Субдискретизация насыщенности : 4:2:0
Битовая глубина : 8 бит
Тип развёртки : Прогрессивная
Метод сжатия : С потерями
Бит/(Пиксели*Кадры) : 0.337
Размер потока : 1,19 Гбайт (79%)
Библиотека кодирования : XviD 1.2.1 (UTC 2008-12-04)
Аудио
Идентификатор : 1
Формат : AC-3
Формат/Информация : Audio Coding 3
Расширение режима : CM (complete main)
Параметр Endianness формата : Big
Идентификатор кодека : 2000
Продолжительность : 1 ч. 36 м.
Вид битрейта : Постоянный
Битрейт : 448 Кбит/сек
Каналы : 6 каналов
Расположение каналов : Front: L C R, Side: L R, LFE
Частота : 48,0 КГц
Битовая глубина : 16 бит
Метод сжатия : С потерями
Размер потока : 309 Мбайт (20%)
Выравнивание : Разделение по промежуткам
Продолжительность промежутка : 42 мс. (1,00 видеокадр)
Время предзагрузки промежутка : 500 мс.



Скачать Моя.супер-бывшая.My.Super.Ex-Girlfriend.(Айвен.Райтман).[2006.фантастика.комедия.BDRip].[DVO].torrent без регистрации
Золото ЗОЛОТАЯ РАЗДАЧА! СКАЧАННОЕ НЕ ЗАСЧИТЫВАЕТСЯ! Золото
Дата: Зарегистрирован   [ Тип: внутренний ] Как тут cкачать?
MAGNET ссылка
MAGNET ссылка


Скачать .torrent

31 KB

Статус: проверено DHT
Скачан: торрент - 133 раз, раздача полностью - 80 раз
Размер: 1,5 GB
Оценка:  - (Голосов: 0)
Поблагодарили: 1
Поделиться ссылкой на эту раздачу с друзьями:
В контактеFacebookОдноклассникиTwitterLivejournalМой МирLiveinternet
 

 
Показать сообщения:    


Вы не можете начинать темы
Вы не можете отвечать на сообщения
Вы не можете редактировать свои сообщения
Вы не можете удалять свои сообщения
Вы не можете голосовать в опросах
Вы не можете прикреплять файлы к сообщениям
Вы можете скачивать файлы