Loading...
Error

Скачать Дети Анархии / Сыны Анархии / Sons of Anarchy (Полный 5-ый сезон) (Paris Barclay, Guy Ferland, Bill Gierhart) [2012, Драма, криминал, HDTVRip] [VO] (ProjektorShow) торрент без регистрации

 
Статистика раздачи
Размер:  5,26 GB   |    Скачан:  5525 раз
Сидов:  1  [  0 KB/s  ]  
 
Автор Сообщение

leon030982

[] 

Дети Анархии / Сыны Анархии / Sons of Anarchy (Полный 5-ый сезон)


Год выпуска: 2012
Страна: США
Жанр: Драма, криминал
Продолжительность: 59 мин.
Перевод: Любительский одноголосный закадровый (ProjektorShow)
Русские субтитры: нет
Субтитры: отсутствуют

Режиссёр: Paris Barclay, Guy Ferland, Bill Gierhart, Peter Weller, Gwyneth Horder-Payton, Paul Maiba

В ролях: Charlie Hunnam , Katey Sagal , Ron Perlman , Johnny Lewis , Tommy Flanagan , Kim Coates , Theo Rossi , Mark Boone Junior

Описание: Sons of Anarchy - клуб байкеров, который занимается продажей оружия. Но молодой лидер клуба не слишком уверен в том, что выбрал правильный путь, и пытается что-то изменить, к неудовольствию своих мамы и отчима.
Потрясающая драма о нелегкой жизни байкеров...

Релиз сайта:

Перевод: Notabenoid
Озвучено: ProjektorShow



Качество: HDTVRip
Формат: AVI
Видео кодек: XviD
Аудио кодек: MP3
Видео: 640x360 (1.78:1), 23.976 fps, XviD MPEG-4 ~990 kbps avg, 0.18 bit/pixel
Аудио: 44.100 kHz, MPEG Layer 3, 2 ch, ~128.00 kbps avg
General
Complete name : D:\Мои документы\Видео\Сериалы\SOA - Season 5 (ProjektorShow)\Sons.of.Anarchy.S05E01.HDTV.ProjektorShow.avi
Format : AVI
Format/Info : Audio Video Interleave
File size : 476 MiB
Duration : 59mn 1s
Overall bit rate : 1 128 Kbps
Writing library : VirtualDub build 32842/release
Video
ID : 0
Format : MPEG-4 Visual
Format profile : Advanced Simple@L5
Format settings, BVOP : 2
Format settings, QPel : No
Format settings, GMC : No warppoints
Format settings, Matrix : Default (H.263)
Muxing mode : Packed bitstream
Codec ID : XVID
Codec ID/Hint : XviD
Duration : 59mn 1s
Bit rate : 991 Kbps
Width : 640 pixels
Height : 360 pixels
Display aspect ratio : 16:9
Frame rate : 23.976 fps
Color space : YUV
Chroma subsampling : 4:2:0
Bit depth : 8 bits
Scan type : Progressive
Compression mode : Lossy
Bits/(Pixel*Frame) : 0.179
Stream size : 418 MiB (88%)
Writing library : XviD 64
Audio
ID : 1
Format : MPEG Audio
Format version : Version 1
Format profile : Layer 3
Mode : Joint stereo
Mode extension : MS Stereo
Codec ID : 55
Codec ID/Hint : MP3
Duration : 59mn 1s
Bit rate mode : Constant
Bit rate : 128 Kbps
Channel(s) : 2 channels
Sampling rate : 44.1 KHz
Compression mode : Lossy
Stream size : 54.0 MiB (11%)
Alignment : Split accross interleaves
Interleave, duration : 42 ms (1.00 video frame)
Interleave, preload duration : 500 ms
При каждом добавлении создаётся новый торрент. Чтобы начать докачку новой серии, пользователям необходимо сделать следующее:
(1) остановить скачивание,
(2) удалить старый торрент у себя из клиента (старые серии удалять не надо),
(3) скачать новый торрент и запустить его у себя в клиенте вместо старого, при этом указать клиенту путь в старую папку куда и должно происходить скачивание новых серий.
Ваш клиент при этом должен произвести хеширование (проверку) старой папки (если не производит сам - помогите ему сделать это), и будет докачивать только те серии которых у вас ещё нет. Старые серии при этом не удаляются, а продолжают раздаваться!
Eсли вы уже удалили старые серии, то предотвратить повторную закачку старых серий можно, отжав галочку в соответствующих местах при запуске нового торрента. По возможности, желательно не удалять старые серии как можно дольше чтобы релизёр не столько продолжал раздавать старые серии, а смог сконцентрироваться на новых.

06.12.12 добавлена финальная 13-я серия!Сезон завершен



Скачать Дети.Анархии.Сыны.Анархии.Sons.of.Anarchy.(Полный.5-ый.сезон).(Paris.Barclay.Guy.Ferland.Bill.Gierhart).[2012.Драма.криминал.HDTVRip].[VO].(ProjektorShow).torrent без регистрации
Золото ЗОЛОТАЯ РАЗДАЧА! СКАЧАННОЕ НЕ ЗАСЧИТЫВАЕТСЯ! Золото
Дата: Зарегистрирован   [ Тип: внутренний ] Как тут cкачать?
MAGNET ссылка
MAGNET ссылка


Скачать .torrent

28 KB

Статус: проверено DHT
Скачан: торрент - 5525 раз, раздача полностью - 97 раз
Размер: 5,26 GB
Оценка:  5 (Голосов: 2)
Поблагодарили: 2
Поделиться ссылкой на эту раздачу с друзьями:
В контактеFacebookОдноклассникиTwitterLivejournalМой МирLiveinternet
 

 
Показать сообщения:    


Вы не можете начинать темы
Вы не можете отвечать на сообщения
Вы не можете редактировать свои сообщения
Вы не можете удалять свои сообщения
Вы не можете голосовать в опросах
Вы не можете прикреплять файлы к сообщениям
Вы можете скачивать файлы