Loading...
Error

/ Parenthood ( / Ron Howard) [1989, , , BDRip-AVC] [AVO] () + [MVO]

 
2,92 GB   |    :  131
1  [  0 KB/s  ]  
 

leon030982

[] 

/ Parenthood

The director of Splash, Willow and Cocoon brings you a comedy about life, love and the gentle art of raising children.:

: 1989
:
: ,
: 02:03:36
1: ( ) -
2: ( )
C:

: / Ron Howard

: , , , , , , , , ,

: . , , , , . , , .



: (64MB)

: BDRip-AVC (: BD-Remux / 1080p / VC-1 / 29543 kbps / 23.976 fps)
: MKV
: x264, 1008x544 (16:9), 23.967 fps, 2232 kbps
1: (AVO; ) AC-3, 48.0kHz, 384kbps, 5.1 ch
2: (MVO) AC-3, 48.0kHz, 384kbps, 2 ch
3: () AC-3, 48.0kHz, 384kbps, 5.1 ch

:

General
Unique ID : 303408782389173187108576055477416923217 (0xE44267EBA3F48D73B38A094DA86A9051)
Complete name : /home/kem/Video/Parenthood.1989.BDRip.x264.AVO.MVO.Eng.mkv
Format : Matroska
Format version : Version 2
File size : 2.92 GiB
Duration : 2h 3mn
Overall bit rate : 3 386 Kbps
Encoded date : UTC 2012-05-21 03:58:17
Writing application : mkvmerge v5.0.1 ('Es ist Sommer') built on Oct 10 2011 09:00:08
Writing library : libebml v1.2.2 + libmatroska v1.3.0
Video
ID : 1
Format : AVC
Format/Info : Advanced Video Codec
Format profile : High@L4.1
Format settings, CABAC : Yes
Format settings, ReFrames : 10 frames
Codec ID : V_MPEG4/ISO/AVC
Duration : 2h 3mn
Bit rate : 2 232 Kbps
Width : 1 008 pixels
Height : 544 pixels
Display aspect ratio : 16:9
Frame rate : 23.976 fps
Color space : YUV
Chroma subsampling : 4:2:0
Bit depth : 8 bits
Scan type : Progressive
Bits/(Pixel*Frame) : 0.170
Stream size : 1.87 GiB (64%)
Writing library : x264 core 122
Encoding settings : cabac=1 / ref=10 / deblock=1:-3:-3 / analyse=0x3:0x133 / me=umh / subme=11 / psy=1 / psy_rd=1.00:0.00 / mixed_ref=1 / me_range=24 / chroma_me=1 / trellis=2 / 8x8dct=1 / cqm=0 / deadzone=21,11 / fast_pskip=0 / chroma_qp_offset=-4 / threads=6 / sliced_threads=0 / nr=0 / decimate=1 / interlaced=0 / bluray_compat=0 / constrained_intra=0 / bframes=7 / b_pyramid=2 / b_adapt=2 / b_bias=0 / direct=3 / weightb=1 / open_gop=0 / weightp=2 / keyint=250 / keyint_min=23 / scenecut=40 / intra_refresh=0 / rc_lookahead=60 / rc=2pass / mbtree=1 / bitrate=2232 / ratetol=1.0 / qcomp=0.70 / qpmin=0 / qpmax=69 / qpstep=4 / cplxblur=20.0 / qblur=0.5 / ip_ratio=1.40 / aq=1:1.00
Default : Yes
Forced : No
Audio #1
ID : 2
Format : AC-3
Format/Info : Audio Coding 3
Mode extension : CM (complete main)
Codec ID : A_AC3
Duration : 2h 3mn
Bit rate mode : Constant
Bit rate : 384 Kbps
Channel(s) : 6 channels
Channel positions : Front: L C R, Side: L R, LFE
Sampling rate : 48.0 KHz
Bit depth : 16 bits
Compression mode : Lossy
Stream size : 339 MiB (11%)
Title : AVO ()
Language : Russian
Default : Yes
Forced : No
Audio #2
ID : 3
Format : AC-3
Format/Info : Audio Coding 3
Mode extension : CM (complete main)
Codec ID : A_AC3
Duration : 2h 3mn
Bit rate mode : Constant
Bit rate : 384 Kbps
Channel(s) : 2 channels
Channel positions : Front: L R
Sampling rate : 48.0 KHz
Bit depth : 16 bits
Compression mode : Lossy
Stream size : 339 MiB (11%)
Title : MVO
Language : Russian
Default : No
Forced : No
Audio #3
ID : 4
Format : AC-3
Format/Info : Audio Coding 3
Mode extension : CM (complete main)
Codec ID : A_AC3
Duration : 2h 3mn
Bit rate mode : Constant
Bit rate : 384 Kbps
Channel(s) : 6 channels
Channel positions : Front: L C R, Side: L R, LFE
Sampling rate : 48.0 KHz
Bit depth : 16 bits
Compression mode : Lossy
Stream size : 339 MiB (11%)
Title : Original
Language : English
Default : No
Forced : No

:

Video stream: 2231.597 kbit/s (278949 B/s) size: 2068467348 bytes 7415.199 secs 177788 frames
x264 [info]: frame I:1274 Avg QP:17.08 size: 83911
x264 [info]: frame P:37483 Avg QP:19.83 size: 25142
x264 [info]: frame B:139030 Avg QP:22.60 size: 7331
x264 [info]: consecutive B-frames: 1.3% 1.5% 4.9% 27.5% 19.0% 38.7% 4.7% 2.3%
x264 [info]: mb I I16..4: 4.1% 80.3% 15.6%
x264 [info]: mb P I16..4: 1.0% 8.1% 1.3% P16..4: 34.0% 37.5% 11.3% 3.4% 0.3% skip: 3.2%
x264 [info]: mb B I16..4: 0.1% 0.7% 0.1% B16..8: 37.2% 20.6% 2.9% direct: 4.3% skip:34.0% L0:41.6% L1:43.7% BI:14.7%
x264 [info]: 8x8 transform intra:78.2% inter:61.9%
x264 [info]: direct mvs spatial:99.2% temporal:0.8%
x264 [info]: coded y,uvDC,uvAC intra: 87.1% 90.6% 70.8% inter: 22.5% 22.0% 4.0%
x264 [info]: i16 v,h,dc,p: 27% 47% 1% 25%
x264 [info]: i8 v,h,dc,ddl,ddr,vr,hd,vl,hu: 8% 7% 3% 10% 16% 15% 14% 13% 13%
x264 [info]: i4 v,h,dc,ddl,ddr,vr,hd,vl,hu: 10% 9% 3% 9% 16% 16% 14% 12% 12%
x264 [info]: i8c dc,h,v,p: 42% 21% 19% 18%
x264 [info]: Weighted P-Frames: Y:3.7% UV:0.9%
x264 [info]: ref P L0: 43.0% 12.6% 19.0% 6.2% 5.7% 3.8% 3.8% 1.9% 2.1% 1.8% 0.2% 0.0%
x264 [info]: ref B L0: 78.0% 10.2% 4.5% 2.3% 1.7% 1.4% 1.1% 0.5% 0.3%
x264 [info]: ref B L1: 94.4% 5.6%
x264 [info]: kb/s:2231.60



.Parenthood.(..Ron.Howard).[1989...BDRip-AVC].[AVO].().+.[MVO].torrent
  ! ! 
:   [ : ] c?
MAGNET
MAGNET


.torrent

30 KB

: DHT
: - 131 , - 15
: 2,92 GB
- (: 0)
: 0
:
 FacebookTwitterLivejournal Liveinternet
 

 
: